#TITLE:TiK ToK (Fred Falke Remix);
#SUBTITLE:;
#ARTIST:Ke$ha;
#TITLETRANSLIT:;
#SUBTITLETRANSLIT:;
#ARTISTTRANSLIT:;
#GENRE:;
#CREDIT:Chewi☆;
#MENUCOLOR:;
#METERTYPE:DDR X;
#BANNER:TiK ToK (Fred Falke Remix).png;
#BACKGROUND:TiK ToK (Fred Falke Remix)-bg.png;
#LYRICSPATH:;
#CDTITLE:;
#MUSIC:TiK ToK (Fred Falke Remix).mp3;
#OFFSET:-0.100;
#SAMPLESTART:75.812;
#SAMPLELENGTH:15.000;
#SELECTABLE:YES;
#LISTSORT:;
#DISPLAYBPM:32.000:126.000;
#BPMS:0.000=126.000,16.000=31.500,20.000=63.000,36.000=126.000;
#STOPS:;
#BGCHANGES:;
#ATTACKS:;

//---------------dance-single - Chewi----------------
#NOTES:
     dance-single:
     Chewi:
     Hard:
     11:
     0.441,0.615,0.179,0.296,0.152: // measure 1
0000
0000
0000
0000
,  // measure 2
0000
0000
0000
0000
,  // measure 3
0000
0000
0000
0000
,  // measure 4
0000
0000
0000
0000
,  // measure 5
2002
0000
0000
0000
0000
0000
0000
0000
0000
0000
0000
0000
0000
0000
3003
0020
,  // measure 6
2030
0000
3010
1000
0010
0000
0010
0100
0001
0100
0010
1000
0001
0000
2000
0000
,  // measure 7
3200
0000
0310
0100
1000
0000
0010
0100
0010
1000
0010
0100
0001
0000
0020
0000
,  // measure 8
0230
0000
0310
0001
0010
0000
0100
1000
0010
1000
0100
0000
0010
0001
1000
0000
,  // measure 9
0002
0000
0000
0000
2000
0000
3003
2000
,  // measure 10
3020
0000
1030
0100
0010
0000
0001
0010
,  // measure 11
0100
1000
0010
0100
0001
0000
0200
0000
,  // measure 12
0320
0000
1030
0001
0010
0000
0100
0010
,  // measure 13
0001
0010
0100
1000
0010
0000
2000
0000
,  // measure 14
3200
0000
0310
0100
1000
0000
0010
0100
,  // measure 15
0001
0100
0010
0000
1000
0000
1100
0000
,  // measure 16
0010
0000
0000
0010
0000
0000
0010
0000
0100
0000
1000
0000
1010
0000
0000
0000
,  // measure 17
0100
0000
0000
0100
0000
0000
0100
0000
0001
0000
0010
0000
0011
0000
0000
0000
,  // measure 18
1000
0100
0010
0100
1000
0010
0100
0001
,  // measure 19
0100
0000
0000
0100
0000
0000
0100
0000
0000
0000
0010
0000
1000
0000
0001
0000
,  // measure 20
0010
0100
1000
0010
1000
0100
0010
0001
,  // measure 21
0010
0000
0000
0010
0000
0000
0010
0000
0000
0000
0001
0000
0010
0000
0100
0000
,  // measure 22
2000
0000
3010
0100
0002
0000
0103
0010
,  // measure 23
1000
0001
1000
1001
0000
0001
1000
0010
,  // measure 24
0200
0000
0301
0010
0100
1000
0010
0000
,  // measure 25
1000
0000
0000
1100
0000
0000
0010
0000
0000
0000
0001
0000
0010
0000
0100
0000
,  // measure 26
0100
1000
0010
0000
1000
0010
1000
0000
1010
0000
0000
0000
1001
0000
0000
0000
,  // measure 27
0100
0001
1000
0000
0100
1000
0001
0000
1001
0000
0000
0000
0011
0000
0000
0000
,  // measure 28
1000
0000
0100
0010
0001
0000
0100
0000
0010
0000
1000
0000
0100
0000
0000
0000
,  // measure 29
0010
0000
0000
0010
0000
0000
0010
0000
0000
0000
0100
0000
1000
0000
0010
0000
,  // measure 30
0100
0001
0010
0000
0100
1000
0010
0000
1010
0000
0000
0000
1100
0000
0000
0000
,  // measure 31
1000
0100
0010
0000
0001
0100
0010
0000
1010
0000
0000
0000
0101
0000
0000
0000
,  // measure 32
0001
1000
0001
0000
1000
0001
1000
0000
0200
0000
0000
0000
0000
0000
0000
0000
,  // measure 33
0020
0000
0330
2000
,  // measure 34
3002
0000
0013
0010
0100
0000
1000
0100
,  // measure 35
0010
0001
0100
0010
1000
0000
0020
0000
,  // measure 36
0230
0000
0301
1000
0100
0000
0010
0100
,  // measure 37
1000
0100
0010
0001
0100
0000
0002
0000
,  // measure 38
0023
0000
0130
0010
0001
0000
0100
0010
,  // measure 39
1000
0010
0100
0000
0001
0000
0011
0000
,  // measure 40
0100
0000
0000
0100
0000
0000
0100
0000
0010
0000
0001
0000
0101
0000
0000
0000
,  // measure 41
0010
0000
0000
0010
0000
0000
0010
0000
1000
0000
0100
0000
2000
0000
0000
0000
,  // measure 42
3002
0000
1003
0100
0010
0000
0001
0010
,  // measure 43
0100
1000
0010
0100
0001
0000
0200
0000
,  // measure 44
0320
0000
1030
0001
0010
0000
0100
0010
,  // measure 45
0001
0010
0100
1000
0010
0000
2000
0000
,  // measure 46
3200
0000
0310
0100
1000
0000
0010
0100
,  // measure 47
0001
0100
0010
0000
1000
0000
1100
0000
,  // measure 48
0010
0000
0000
0010
0000
0000
0010
0000
0100
0000
1000
0000
1010
0000
0000
0000
,  // measure 49
0100
0000
0000
0100
0000
0000
0100
0000
0001
0000
0010
0000
0011
0000
0000
0000
,  // measure 50
1100
0000
0000
0000
;

//---------------dance-single - Chewi----------------
#NOTES:
     dance-single:
     Chewi:
     Medium:
     8:
     0.277,0.329,0.179,0.072,0.027:
0000
0000
0000
0000
,
0000
0000
0000
0000
,
0000
0000
0000
0000
,
0000
0000
0000
0000
,
2002
0000
0000
3003
,
1000
0001
1000
0000
0010
0100
0010
1000
,
0100
0010
0001
0000
0001
0010
0100
1000
,
0100
1000
0010
0000
1000
0001
0100
0010
,
0200
0000
0000
0000
0020
0000
0000
0330
,
1000
0000
1000
0000
1000
0100
1000
0000
,
1000
0100
0010
0001
,
0001
0000
0001
0000
0001
0100
0001
0000
,
0100
0010
1000
0001
,
1000
0000
0010
0000
0100
0001
1000
0000
,
0100
0010
0001
0010
,
0100
0000
1000
0000
0010
1000
0100
0000
,
0010
0001
0100
0010
,
1010
0000
1010
0000
,
1000
0001
1000
0000
0001
1000
0001
0000
,
0101
0000
0101
0000
,
0001
1000
0001
0000
1000
0001
1000
0000
,
1000
0100
0010
0000
,
0001
0100
0010
0000
,
1000
0100
0001
0010
,
1000
0100
0010
0001
,
1000
0000
0000
1000
0000
0000
1000
0000
0001
0000
0000
0000
1000
0000
0000
0000
,
0010
0100
0001
0100
,
0010
1000
0001
1000
,
0100
0000
0000
0100
0000
0000
0100
0000
0000
0000
0000
0000
0000
0000
0000
0000
,
0010
0100
1000
1010
,
0100
0001
0010
0011
,
1002
0000
0203
0000
,
0320
0000
2030
0000
,
3010
0000
1000
0001
1000
0000
0001
0000
,
0010
0100
1000
1010
,
0101
0000
0100
0010
0100
0000
0010
0000
,
1000
0001
0010
0011
,
1100
0000
1000
0010
1000
0000
0100
0000
,
0010
0001
1000
0010
,
0010
0000
0000
0010
0000
0000
0010
0000
0010
0000
0000
0000
0000
0000
0000
0000
,
0100
0000
0000
0100
0000
0000
0100
0000
0100
0000
0000
0000
0110
0000
0000
0000
,
1001
0000
1000
0100
1000
0000
0100
0000
,
0010
0001
0010
0110
,
0011
0001
0100
0010
,
1000
0100
0010
0110
,
1100
1000
0010
0100
,
0001
1000
0100
0110
,
0100
0000
0000
0100
0000
0000
0100
0000
0100
0000
0000
0000
0000
0000
0000
0000
,
0010
0000
0000
0010
0000
0000
0010
0000
0010
0000
0000
0000
0000
0000
0000
0000
,
1001
0000
0000
0000
;

//---------------dance-single - Chewi----------------
#NOTES:
     dance-single:
     Chewi:
     Beginner:
     2:
     0.120,0.154,0.054,0.018,0.000:
0000
0000
0000
0000
,
0000
0000
0000
0000
,
0000
0000
0000
0000
,
0000
0000
0000
0000
,
2002
0000
0000
3003
,
1000
0000
1000
0000
,
0001
0000
0001
0000
,
1000
0000
0001
0000
,
1000
0000
0001
0000
,
0001
0000
0001
0000
,
0100
0000
0100
0000
,
0010
0000
0010
0000
,
1000
0000
1000
0000
,
0100
0000
0001
0000
,
0001
0000
0010
0000
,
0110
0000
0000
0000
,
1001
0000
0000
0000
,
1000
0000
0100
0000
,
0010
0000
1000
0000
,
1000
0000
0010
0000
,
0100
0000
0100
0000
,
0010
0000
0001
0000
,
0010
0000
1000
0000
,
1000
0000
1000
0000
,
0001
0000
0001
0000
,
1000
0000
0100
0000
,
0100
0000
0001
0000
,
0001
0000
0100
0000
,
0100
0000
1000
0000
,
1000
0000
0001
0000
,
0001
0000
1000
0000
,
1001
0000
0000
0000
,
0110
0000
0000
0000
,
0010
0000
0010
0000
,
0100
0000
0100
0000
,
0010
0000
0010
0000
,
0001
0000
0001
0000
,
1000
0000
1000
0000
,
0010
0000
0010
0000
,
0100
0000
0100
0000
,
0001
0000
0001
0000
,
1000
0000
1000
0000
,
0100
0000
0100
0000
,
0001
0000
0001
0000
,
0010
0000
0010
0000
,
1000
0000
1000
0000
,
0100
0000
0100
0000
,
0010
0000
0010
0000
,
0100
0000
0100
0000
,
0110
0000
0000
0000
;

//---------------dance-single - Chewi----------------
#NOTES:
     dance-single:
     Chewi:
     Easy:
     4:
     0.210,0.264,0.063,0.063,0.000:
0000
0000
0000
0000
,
0000
0000
0000
0000
,
0000
0000
0000
0000
,
0000
0000
0000
0000
,
2002
0000
0000
0000
0000
0000
0000
3003
,
1000
0000
1000
0000
1000
1000
1000
0000
,
0001
0000
0001
0000
0001
0001
0001
0000
,
1000
0000
0001
0000
1000
0001
1000
0000
,
1001
0000
0000
0000
1001
0000
0000
1000
,
0001
1000
0001
0000
,
0100
0010
0100
0000
,
0010
1000
0010
0000
,
1000
0100
1000
0000
,
0100
0010
0001
0000
,
0001
0100
0010
0000
,
0110
0000
0000
0000
,
1001
0000
0000
0000
,
1000
1000
0100
0100
,
0010
0100
1000
0000
,
1000
1000
0010
0010
,
0100
0001
0100
0000
,
0010
0100
0001
0000
,
0010
0100
1000
0000
,
1000
0001
1000
0000
,
0001
1000
0001
0000
,
2000
0000
3100
0000
,
0100
0010
0001
0000
,
0002
0000
0103
0000
,
0100
0010
1000
0000
,
1000
1000
0001
1000
,
0001
0001
1000
0001
,
2002
0000
0000
3000
,
0020
0000
0000
0033
,
0010
0010
0010
0010
,
0100
0100
0100
0100
,
0010
0010
0010
0010
,
0001
0001
0001
0001
,
1000
1000
1000
1000
,
0010
0010
0010
0010
,
0100
0100
0100
0100
,
0001
0001
0001
0001
,
1000
1000
1000
1000
,
0100
0100
0100
0100
,
0001
0001
0001
0001
,
0010
0010
0010
0010
,
1000
1000
1000
1000
,
0100
0100
0100
0100
,
0010
0010
0010
0010
,
0100
0100
0100
0100
,
0110
0000
0000
0000
;
