#TITLE:This Is What You Came For (feat. Rihanna);
#SUBTITLE:;
#ARTIST:Calvin Harris;
#TITLETRANSLIT:;
#SUBTITLETRANSLIT:;
#ARTISTTRANSLIT:;
#GENRE:Pop;
#CREDIT:chewi;
#BANNER:This Is What You Came For (feat. Rihanna).png;
#BACKGROUND:This Is What You Came For (feat. Rihanna)-bg.png;
#LYRICSPATH:;
#CDTITLE:cdtitle.png;
#MUSIC:This Is What You Came For (feat. Rihanna).ogg;
#OFFSET:-0.250000;
#SAMPLESTART:15.739000;
#SAMPLELENGTH:15.000000;
#SELECTABLE:YES;
#BPMS:0.000000=124.000000
;
#STOPS:
;
#BGCHANGES:;
#KEYSOUNDS:;
#ATTACKS:;

//---------------dance-single - ----------------
#NOTES:
     dance-single:
     :
     Medium:
     7:
     0.226448,0.283018,0.023659,0.078862,0.000000,201.000000,198.000000,3.000000,10.000000,0.000000,0.000000,0.226448,0.283018,0.023659,0.078862,0.000000,201.000000,198.000000,3.000000,10.000000,0.000000,0.000000:
// measure 0
0000
0000
0000
0000
,  // measure 1
0000
0000
0000
0000
,  // measure 2
0000
0000
0000
0000
,  // measure 3
0000
0000
0000
0000
,  // measure 4
1000
0000
0000
1000
0000
0000
1000
0000
,  // measure 5
0001
0000
0000
0001
0000
0000
0001
0000
,  // measure 6
0100
0000
0000
0100
0000
0000
0100
0000
,  // measure 7
0020
0000
0000
0030
,  // measure 8
0010
1000
0100
0000
,  // measure 9
0001
0010
1000
0000
,  // measure 10
0100
0001
0010
0000
,  // measure 11
1000
0100
0001
0000
,  // measure 12
0010
1000
0100
0000
,  // measure 13
0001
0010
1000
0000
,  // measure 14
0100
0001
0010
0000
,  // measure 15
1000
0100
0001
0010
,  // measure 16
0020
0000
0000
0030
,  // measure 17
0001
0000
0000
0001
0000
0000
0001
0000
,  // measure 18
0010
0000
0000
0010
0000
0000
0010
0000
,  // measure 19
0100
0000
0000
0100
0000
0000
0100
0000
,  // measure 20
1000
0000
0000
1000
0000
0000
1000
0000
,  // measure 21
0001
0000
0000
0001
0000
0000
0001
0000
,  // measure 22
1000
0001
1000
1001
,  // measure 23
0001
1000
0001
1001
,  // measure 24
2000
0010
0000
3010
,  // measure 25
0020
1000
0000
1030
,  // measure 26
1000
0010
0100
0001
,  // measure 27
0001
0100
0010
1000
,  // measure 28
0002
0100
0000
0103
,  // measure 29
0200
0001
0000
0301
,  // measure 30
0001
0010
0100
1000
,  // measure 31
1000
0100
0010
0001
,  // measure 32
0000
0010
0000
0001
0000
0010
0000
0100
,  // measure 33
0000
0010
0000
0001
0000
0010
0000
0100
,  // measure 34
0000
1000
0000
0010
0000
1000
0000
0100
,  // measure 35
0000
0010
0000
0100
0000
1000
0000
0100
,  // measure 36
0000
1000
0000
0001
0000
0100
0000
0010
,  // measure 37
0000
0010
0000
0100
0000
0001
0000
1000
,  // measure 38
0000
0001
0000
0010
0000
0100
0000
1000
,  // measure 39
0000
1000
0000
0100
0000
0010
0000
0001
,  // measure 40
0001
0001
0001
0001
,  // measure 41
1000
1000
1000
1000
,  // measure 42
0010
0010
0010
0010
,  // measure 43
0100
0100
0100
0100
,  // measure 44
0010
1000
0100
0010
,  // measure 45
0001
0100
0010
1000
,  // measure 46
0001
0100
0010
0100
,  // measure 47
0002
0000
0000
0003
,  // measure 48
0100
0001
0010
0000
,  // measure 49
1000
0100
0001
0000
,  // measure 50
0010
1000
0100
0000
,  // measure 51
0001
0010
1000
0000
,  // measure 52
0100
0001
0010
0000
,  // measure 53
1000
0100
0001
0000
,  // measure 54
0010
1000
0100
0000
,  // measure 55
0001
0010
1000
0100
,  // measure 56
0200
0000
0000
0300
,  // measure 57
1000
0000
0000
1000
0000
0000
1000
0000
,  // measure 58
0100
0000
0000
0100
0000
0000
0100
0000
,  // measure 59
0010
0000
0000
0010
0000
0000
0010
0000
,  // measure 60
0001
0000
0000
0001
0000
0000
0001
0000
,  // measure 61
1000
0000
0000
1000
0000
0000
1000
0000
,  // measure 62
0001
1000
0001
1001
,  // measure 63
1000
0001
1000
0002
,  // measure 64
2000
0000
0000
0000
,  // measure 65
0000
3003
0000
0000
;

//---------------dance-single - ----------------
#NOTES:
     dance-single:
     :
     Hard:
     11:
     0.495707,0.568204,0.268132,0.047317,0.390369,440.000000,406.000000,34.000000,6.000000,0.000000,0.000000,0.495707,0.568204,0.268132,0.047317,0.390369,440.000000,406.000000,34.000000,6.000000,0.000000,0.000000:
// measure 0
0000
0000
0000
0000
,  // measure 1
0000
0000
0000
0000
,  // measure 2
0000
0000
0000
0000
,  // measure 3
0000
0000
0000
0000
,  // measure 4
1000
0000
0000
0010
0000
0000
0100
0000
0000
0001
0000
0100
0001
0000
0000
0000
,  // measure 5
0001
0000
0000
0100
0000
0000
0010
0000
0000
1000
0000
0010
1000
0000
0000
0010
,  // measure 6
1000
0000
0000
0100
0000
0000
0010
0000
0000
0001
0000
0010
0001
0000
0000
0000
,  // measure 7
0001
1000
0001
1000
0001
1000
0001
1000
0001
0000
0000
0000
0000
0000
0000
0000
,  // measure 8
0001
0000
0000
0100
0000
0000
0010
0000
0000
0100
0000
0001
0100
0000
0000
0000
,  // measure 9
0100
0000
0000
0100
0000
0000
0010
0000
0000
0010
0000
1000
0010
0000
0000
0010
,  // measure 10
1000
0000
0000
0010
0000
0000
0100
0000
0000
0010
0000
0000
1000
0000
0000
0000
,  // measure 11
0001
0000
0000
0101
0000
0000
1000
0000
0000
1100
0000
0000
1000
0000
0000
0000
,  // measure 12
1000
0000
0000
0010
0000
0000
0100
0000
0000
0010
0000
1000
0010
0000
0000
0000
,  // measure 13
0010
0000
0000
0010
0000
0000
0100
0000
0000
0100
0000
0001
0100
0000
0000
0100
,  // measure 14
0001
0000
0000
0100
0000
0000
0010
0000
0000
0100
0000
0000
0001
0000
0000
0000
,  // measure 15
1000
0000
0000
1010
0000
0000
0001
0000
0000
0011
0000
0000
0001
0000
0000
0000
,  // measure 16
2002
0000
0000
3003
,  // measure 17
0100
0000
0000
0100
0010
0000
1000
0000
0001
0000
0010
0000
0100
0000
1000
0000
,  // measure 18
0001
0000
0000
0001
1000
0000
0100
0000
0010
0000
0001
0000
1000
0000
0010
0000
,  // measure 19
0100
0000
0000
0100
0010
0000
1000
0000
0001
0000
0010
0000
0100
0000
1000
0000
,  // measure 20
0001
0000
0000
0001
1000
0000
0100
0000
0010
0000
0001
0000
1000
0000
0010
0000
,  // measure 21
0100
0000
0000
0100
0010
0000
1000
0000
0001
0000
0010
0000
0100
0000
1000
0000
,  // measure 22
1001
0000
0000
1001
0000
0000
1001
0000
0000
1001
0000
0000
1001
0000
0000
0000
,  // measure 23
0110
0000
0000
0110
0000
0000
0110
0000
0000
0110
0000
0000
0110
0000
0000
0000
,  // measure 24
1000
0000
0001
0100
0001
0000
0100
0000
,  // measure 25
0100
0010
1000
0100
0010
0001
0100
0000
,  // measure 26
0001
0000
0000
0101
0000
0000
1000
0000
0000
1100
0000
0000
0001
0000
0000
0000
,  // measure 27
1000
0000
0000
1100
0000
0000
0001
0000
0000
0101
0000
0000
1000
0000
0000
0000
,  // measure 28
0001
0000
0100
0010
0100
0000
0001
0000
,  // measure 29
0010
0100
1000
0010
1000
0100
0010
0000
,  // measure 30
0001
0000
0000
0011
0000
0000
1000
0000
0000
1010
0000
0000
0001
0000
0000
0000
,  // measure 31
0001
0000
0000
0011
0000
0000
1000
0000
0000
1010
0000
0000
1000
0000
0000
0000
,  // measure 32
0001
0010
0001
0010
0001
0100
0001
0100
,  // measure 33
0001
0010
0001
0010
0001
0100
0001
0100
,  // measure 34
0001
0010
0001
0100
0001
0010
0001
0100
,  // measure 35
0001
0010
0100
1000
0001
0010
0100
1000
,  // measure 36
0010
1000
0010
1000
0100
1000
0100
1000
,  // measure 37
0010
1000
0010
1000
0100
1000
0100
1000
,  // measure 38
0010
1000
0100
1000
0010
1000
0100
1000
,  // measure 39
0010
0100
0001
1000
0010
0100
0001
1000
,  // measure 40
1000
0000
0000
0010
0000
0000
0100
0000
0000
0001
0000
0100
0001
0000
0000
0000
,  // measure 41
0001
0000
0000
0100
0000
0000
0010
0000
0000
1000
0000
0010
1000
0000
0000
0010
,  // measure 42
1000
0000
0000
0100
0000
0000
0010
0000
0000
0001
0000
0000
0001
0000
0000
0000
,  // measure 43
0001
0000
0000
0010
0000
0000
0100
0000
0000
1000
0000
0000
1000
0000
0000
0000
,  // measure 44
0001
0000
0000
0100
0000
0000
0010
0000
0000
1000
0000
0010
1000
0000
0000
0000
,  // measure 45
1000
0000
0000
0010
0000
0000
0100
0000
0000
0001
0000
0100
0001
0000
0000
0100
,  // measure 46
0001
0000
0000
0010
0000
0000
0100
0000
0000
1000
0000
0100
1000
0000
0000
0000
,  // measure 47
1000
0001
1000
0001
1000
0001
1000
0001
1000
0000
0000
0000
0000
0000
0000
0000
,  // measure 48
0010
0000
0000
0010
0100
0000
0001
0000
1000
0000
0100
0000
0010
0000
0001
0000
,  // measure 49
1000
0000
0000
1000
0001
0000
0010
0000
0100
0000
1000
0000
0001
0000
0100
0000
,  // measure 50
0010
0000
0000
0010
0100
0000
0001
0000
1000
0000
0100
0000
0010
0000
0001
0000
,  // measure 51
1000
0000
0000
1000
0001
0000
0010
0000
0100
0000
1000
0000
0001
0000
0100
0000
,  // measure 52
0010
0000
0000
0010
0100
0000
0001
0000
1000
0000
0100
0000
0010
0000
0001
0000
,  // measure 53
0010
0000
0000
0010
0100
0000
1000
0000
0001
0000
0010
0000
0100
0000
0010
0000
,  // measure 54
0011
0000
0000
0011
0000
0000
0011
0000
0000
0011
0000
0000
0011
0000
0000
0000
,  // measure 55
1100
0000
0000
1100
0000
0000
1100
0000
0000
1100
0000
0000
1100
0000
0000
0000
,  // measure 56
2002
0000
0000
3003
,  // measure 57
0100
0000
0010
0000
1000
0000
0001
0000
0100
0010
1000
0000
0100
0000
0000
0000
,  // measure 58
0010
0000
0100
0000
1000
0000
0001
0000
0010
0100
1000
0000
0010
0000
0000
0000
,  // measure 59
0100
0000
0001
0000
0100
0000
0010
0000
1000
0001
0100
0000
0010
1000
0001
0000
,  // measure 60
0010
0000
0100
0000
1000
0000
0001
0000
0010
0100
1000
0000
0010
0000
0000
0000
,  // measure 61
1000
0000
0100
0000
0010
0000
0001
0000
0100
0010
1000
0000
0001
0000
0000
0000
,  // measure 62
1000
0000
0001
0000
0010
0000
0100
0000
1000
0001
0010
0000
0001
0010
0001
0000
,  // measure 63
1000
0000
0001
0000
0100
0000
0010
0000
0100
0001
0100
0000
0001
0100
0002
0200
,  // measure 64
0000
0000
0000
0000
,  // measure 65
0000
0000
0303
0000
;

//---------------dance-single - ----------------
#NOTES:
     dance-single:
     :
     Easy:
     4:
     0.166738,0.175962,0.000000,0.205042,0.000000,148.000000,148.000000,0.000000,26.000000,0.000000,0.000000,0.166738,0.175962,0.000000,0.205042,0.000000,148.000000,148.000000,0.000000,26.000000,0.000000,0.000000:
// measure 0
0000
0000
0000
0000
,  // measure 1
0000
0000
0000
0000
,  // measure 2
0000
0000
0000
0000
,  // measure 3
0000
0000
0000
0000
,  // measure 4
2000
0000
0000
3000
,  // measure 5
0200
0000
0000
0300
,  // measure 6
0020
0000
0000
0030
,  // measure 7
0002
0000
0000
0003
,  // measure 8
0001
0100
0001
0000
,  // measure 9
0002
0000
0103
0000
,  // measure 10
1000
0100
1000
0000
,  // measure 11
2000
0000
3100
0000
,  // measure 12
0100
0010
0100
0000
,  // measure 13
0020
0000
0130
0000
,  // measure 14
0100
0010
0100
0000
,  // measure 15
0200
0000
0310
0000
,  // measure 16
0002
0000
0000
0003
,  // measure 17
0001
0100
0001
0000
,  // measure 18
0100
0010
0100
0000
,  // measure 19
0010
1000
0010
0000
,  // measure 20
1000
0010
1000
0000
,  // measure 21
0010
0100
0010
0000
,  // measure 22
0100
0001
0100
0000
,  // measure 23
0001
0100
0001
0000
,  // measure 24
0001
0000
0010
0000
,  // measure 25
0100
0100
0100
0100
,  // measure 26
0000
1000
0000
0001
,  // measure 27
0000
1000
0000
0001
,  // measure 28
0000
1000
0010
0000
,  // measure 29
0100
0100
0100
0100
,  // measure 30
0000
0001
0000
1000
,  // measure 31
0000
0001
0000
1000
,  // measure 32
2000
0000
3200
0000
,  // measure 33
0320
0000
0032
0000
,  // measure 34
0013
0010
0010
0000
,  // measure 35
0010
0010
0010
0000
,  // measure 36
0002
0000
0023
0000
,  // measure 37
0230
0000
2300
0000
,  // measure 38
3100
0100
0100
0000
,  // measure 39
0100
0100
0100
0000
,  // measure 40
0010
0100
0010
0000
,  // measure 41
0200
0000
0310
0000
,  // measure 42
0100
0010
0100
0000
,  // measure 43
0020
0000
0130
0000
,  // measure 44
1000
0001
1000
0000
,  // measure 45
0002
0000
1003
0000
,  // measure 46
0001
1000
0001
0000
,  // measure 47
2000
0000
0000
3000
,  // measure 48
0001
0100
0001
0000
,  // measure 49
0002
0000
0103
0000
,  // measure 50
1000
0100
1000
0000
,  // measure 51
2000
0000
3100
0000
,  // measure 52
0100
0010
0100
0000
,  // measure 53
0020
0000
0130
0000
,  // measure 54
0100
0010
0100
0000
,  // measure 55
0200
0000
0310
0000
,  // measure 56
0002
0000
0000
0003
,  // measure 57
0001
0100
0001
0000
,  // measure 58
0100
0010
0100
0000
,  // measure 59
0010
1000
0010
0000
,  // measure 60
1000
0010
1000
0000
,  // measure 61
0010
0100
0010
0000
,  // measure 62
0100
0001
0100
0000
,  // measure 63
0001
0100
0001
0100
;

//---------------dance-single - ----------------
#NOTES:
     dance-single:
     :
     Beginner:
     1:
     0.074356,0.099367,0.000000,0.000000,0.000000,66.000000,66.000000,0.000000,0.000000,0.000000,0.000000,0.074356,0.099367,0.000000,0.000000,0.000000,66.000000,66.000000,0.000000,0.000000,0.000000,0.000000:
// measure 0
0000
0000
0000
0000
,  // measure 1
0000
0000
0000
0000
,  // measure 2
0000
0000
0000
0000
,  // measure 3
0000
0000
0000
0000
,  // measure 4
1000
0000
0000
0000
,  // measure 5
0001
0000
0000
0000
,  // measure 6
1000
0000
0000
0000
,  // measure 7
0001
0000
0000
0000
,  // measure 8
0100
0000
0000
0000
,  // measure 9
0100
0000
0000
0000
,  // measure 10
0010
0000
0000
0000
,  // measure 11
0010
0000
0000
0000
,  // measure 12
0100
0000
0000
0000
,  // measure 13
0100
0000
0000
0000
,  // measure 14
0010
0000
0000
0000
,  // measure 15
0010
0000
0000
0000
,  // measure 16
0000
0000
0000
0000
,  // measure 17
1000
0000
1000
0000
,  // measure 18
1000
0000
0000
0000
,  // measure 19
0100
0000
0100
0000
,  // measure 20
0100
0000
0000
0000
,  // measure 21
0010
0000
0010
0000
,  // measure 22
0010
0000
0000
0000
,  // measure 23
0001
0000
0001
0000
,  // measure 24
0001
0000
0000
0000
,  // measure 25
0001
0000
0000
0000
,  // measure 26
1000
0000
0000
0000
,  // measure 27
1000
0000
0000
0000
,  // measure 28
0010
0000
0000
0000
,  // measure 29
0010
0000
0000
0000
,  // measure 30
0100
0000
0000
0000
,  // measure 31
0100
0000
0000
0000
,  // measure 32
1000
0000
0000
0000
,  // measure 33
1000
0000
0000
0000
,  // measure 34
0001
0000
0000
0000
,  // measure 35
0001
0000
0000
0000
,  // measure 36
0100
0000
0000
0000
,  // measure 37
0100
0000
0000
0000
,  // measure 38
0010
0000
0000
0000
,  // measure 39
0010
0000
0000
0000
,  // measure 40
1000
0000
0000
0000
,  // measure 41
1000
0000
0000
0000
,  // measure 42
1000
0000
0000
0000
,  // measure 43
1000
0000
0000
0000
,  // measure 44
0001
0000
0000
0000
,  // measure 45
0001
0000
0000
0000
,  // measure 46
0001
0000
0000
0000
,  // measure 47
0001
0000
0000
0000
,  // measure 48
0010
0000
0010
0000
,  // measure 49
0010
0000
0000
0000
,  // measure 50
0100
0000
0100
0000
,  // measure 51
0100
0000
0000
0000
,  // measure 52
1000
0000
1000
0000
,  // measure 53
1000
0000
0000
0000
,  // measure 54
0001
0000
0001
0000
,  // measure 55
0001
0000
0000
0000
,  // measure 56
0000
0000
0000
0000
,  // measure 57
1000
0000
0000
0000
,  // measure 58
0001
0000
0000
0000
,  // measure 59
0001
0000
0000
0000
,  // measure 60
1000
0000
0000
0000
,  // measure 61
0100
0000
0000
0000
,  // measure 62
0010
0000
0000
0000
,  // measure 63
0010
0000
0000
0000
;
