#TITLE:The Weekend;
#SUBTITLE:;
#ARTIST:Michael Gray;
#TITLETRANSLIT:;
#SUBTITLETRANSLIT:;
#ARTISTTRANSLIT:;
#GENRE:;
#CREDIT:Chewi☆;
#MENUCOLOR:#FFFF00;
#METERTYPE:DDR;
#BANNER:The Weekend.png;
#BACKGROUND:The Weekend-bg.png;
#LYRICSPATH:;
#CDTITLE:./CDTITLES/Zenius -I- vanisher SUMMER CONTEST 2011.png;
#MUSIC:The Weekend.mp3;
#OFFSET:-1.551;
#SAMPLESTART:69.570;
#SAMPLELENGTH:15.000;
#SELECTABLE:YES;
#LISTSORT:;
#DISPLAYBPM:127.000;
#BPMS:0.000=127.000;
#STOPS:;
#BGCHANGES:;
#ATTACKS:;

//---------------dance-single - Chewi----------------
#NOTES:
     dance-single:
     Chewi:
     Beginner:
     1:
     0.073,0.102,0.032,0.000,0.000: // measure 1
0000
0000
0000
0000
,  // measure 2
0000
0000
0000
0000
,  // measure 3
0000
0000
0000
0000
,  // measure 4
0000
0000
0000
0000
,  // measure 5
1000
0000
0000
0000
,  // measure 6
0001
0000
0000
0000
,  // measure 7
1000
0000
0000
0000
,  // measure 8
1001
0000
0000
0000
,  // measure 9
0001
0000
0000
0000
,  // measure 10
1000
0000
0000
0000
,  // measure 11
0001
0000
0000
0000
,  // measure 12
1000
0000
0000
0000
,  // measure 13
1000
0000
0000
0000
,  // measure 14
0001
0000
0000
0000
,  // measure 15
0001
0000
0000
0000
,  // measure 16
1000
0000
0000
0000
,  // measure 17
0010
0000
0000
0000
,  // measure 18
0001
0000
0000
0000
,  // measure 19
1000
0000
0000
0000
,  // measure 20
0100
0000
0000
0000
,  // measure 21
0010
0000
0000
0000
,  // measure 22
0001
0000
0000
0000
,  // measure 23
1001
0000
0000
0000
,  // measure 24
1000
0000
0000
0000
,  // measure 25
0100
0000
0000
0000
,  // measure 26
0100
0000
0000
0000
,  // measure 27
0010
0000
0000
0000
,  // measure 28
0100
0000
0000
0000
,  // measure 29
0001
0000
0000
0000
,  // measure 30
1000
0000
0000
0000
,  // measure 31
1000
0000
0000
0000
,  // measure 32
0010
0000
0000
0000
,  // measure 33
1000
0000
0000
0000
,  // measure 34
0001
0000
0000
0000
,  // measure 35
1001
0000
0000
0000
,  // measure 36
0001
0000
0000
0000
,  // measure 37
1000
0000
0000
0000
,  // measure 38
1000
0000
0000
0000
,  // measure 39
0010
0000
0000
0000
,  // measure 40
0100
0000
0000
0000
,  // measure 41
0100
0000
0000
0000
,  // measure 42
0010
0000
0000
0000
,  // measure 43
0001
0000
0000
0000
,  // measure 44
0010
0000
0000
0000
,  // measure 45
0010
0000
0000
0000
,  // measure 46
1000
0000
0000
0000
,  // measure 47
0010
0000
0000
0000
,  // measure 48
0001
0000
0000
0000
,  // measure 49
0100
0000
0000
0000
;

//---------------dance-single - Chewi----------------
#NOTES:
     dance-single:
     Chewi:
     Easy:
     2:
     0.206,0.255,0.096,0.106,0.000: // measure 1
0000
0000
0000
0000
,  // measure 2
0000
0000
0000
0000
,  // measure 3
0000
0000
0000
0000
,  // measure 4
0000
0000
0000
0000
,  // measure 5
1000
1000
0010
0000
,  // measure 6
0001
0001
0010
0000
,  // measure 7
1000
0001
1000
0000
,  // measure 8
2002
0000
0000
3003
,  // measure 9
0001
0000
0010
0000
,  // measure 10
1000
0100
0001
0000
,  // measure 11
0001
0000
0100
0000
,  // measure 12
1000
0010
0001
0000
,  // measure 13
1000
0000
1001
0000
,  // measure 14
0001
1000
0001
0000
,  // measure 15
0001
0000
1001
0000
,  // measure 16
1000
0001
1000
0000
,  // measure 17
0010
0010
0010
0000
,  // measure 18
0001
0000
0100
0000
,  // measure 19
1000
1000
1000
0000
,  // measure 20
0100
0000
0001
0000
,  // measure 21
0010
0000
0100
0000
,  // measure 22
0001
0000
1000
0000
,  // measure 23
2002
0000
0000
3003
,  // measure 24
0220
0000
0000
0330
,  // measure 25
0100
0001
0010
0000
,  // measure 26
0100
1000
0010
0000
,  // measure 27
0100
0010
0100
0010
,  // measure 28
0100
0000
0000
0000
,  // measure 29
0001
0010
0100
0000
,  // measure 30
1001
0000
0100
0000
,  // measure 31
1000
0010
0100
0000
,  // measure 32
0010
0000
0110
0000
,  // measure 33
1000
1000
0100
0100
,  // measure 34
0001
0001
0100
0100
,  // measure 35
2002
0000
0000
3003
,  // measure 36
0220
0000
0000
0330
,  // measure 37
1000
0100
0010
0000
,  // measure 38
1000
0001
0100
0000
,  // measure 39
0010
0100
0010
0000
,  // measure 40
0100
0010
0100
0010
,  // measure 41
0100
0001
0010
0000
,  // measure 42
0010
1000
0100
0000
,  // measure 43
0001
1000
0100
0000
,  // measure 44
0010
0100
0010
0100
,  // measure 45
0010
0001
0100
0000
,  // measure 46
1000
0100
0001
0000
,  // measure 47
0010
1000
0100
0000
,  // measure 48
0001
1000
0100
0010
,  // measure 49
0100
0000
0000
0000
;

//---------------dance-single - Chewi----------------
#NOTES:
     dance-single:
     Chewi:
     Medium:
     5:
     0.294,0.331,0.170,0.117,0.000: // measure 1
0000
0000
0000
0000
,  // measure 2
0000
0000
0000
0000
,  // measure 3
0000
0000
0000
0000
,  // measure 4
0000
0000
0000
0000
,  // measure 5
1000
0100
0010
0001
,  // measure 6
1000
0100
0001
0100
,  // measure 7
0001
0100
0010
1000
,  // measure 8
0001
0010
1000
0010
,  // measure 9
0110
0000
0100
0000
,  // measure 10
0100
0000
0010
0000
1000
0001
1000
0000
,  // measure 11
0100
0001
0010
0000
,  // measure 12
0100
1000
0010
0000
,  // measure 13
0110
0000
0010
0000
,  // measure 14
0010
0000
1000
0000
0100
0010
0001
0000
,  // measure 15
0100
0001
0010
1000
,  // measure 16
0100
1000
0010
0001
,  // measure 17
0100
0010
0100
0000
0110
0000
0000
0000
,  // measure 18
1001
0000
1100
0000
,  // measure 19
1000
0100
1000
0000
0000
0001
0000
0000
,  // measure 20
0100
0000
0000
0010
0100
0000
0000
0000
,  // measure 21
0010
0001
0100
0001
,  // measure 22
0010
1000
0100
1000
,  // measure 23
0001
0101
1000
1100
,  // measure 24
0220
0000
0000
0330
,  // measure 25
2000
0000
3001
0000
0010
0010
0010
0000
,  // measure 26
0002
0000
1003
0000
0100
0100
0100
0000
,  // measure 27
0020
0000
0130
0000
0100
0010
0100
0000
,  // measure 28
0220
0000
0000
0330
,  // measure 29
0100
0010
0100
0000
0110
0000
0000
0000
,  // measure 30
1001
0000
1100
0000
,  // measure 31
1000
0100
1000
0000
0000
0001
0000
0000
,  // measure 32
0100
0000
0000
0010
0100
0000
0000
0000
,  // measure 33
0010
0001
0100
0001
,  // measure 34
0010
1000
0100
1000
,  // measure 35
0001
0101
1000
1100
,  // measure 36
0220
0000
0000
0330
,  // measure 37
1000
0000
0100
0000
0010
0001
0100
0000
,  // measure 38
0010
0000
0100
0000
0001
1000
0100
0000
,  // measure 39
1000
0000
0100
0000
0010
0001
0100
0000
,  // measure 40
2000
0100
0001
3010
,  // measure 41
0001
0000
0100
0000
1000
0100
0001
0000
,  // measure 42
1000
0000
0010
0000
0001
0010
1000
0000
,  // measure 43
0010
0000
0100
0000
1000
0010
0100
0000
,  // measure 44
0002
0100
0010
1003
,  // measure 45
0001
0000
0010
0000
0001
0010
0001
0000
,  // measure 46
1000
0000
0100
0000
1000
0100
1000
0000
,  // measure 47
0001
0000
1000
0010
,  // measure 48
0100
0000
0010
0100
,  // measure 49
0110
0000
0000
0000
;

//---------------dance-single - Chewi----------------
#NOTES:
     dance-single:
     Chewi:
     Hard:
     7:
     0.419,0.432,0.096,0.329,0.021: // measure 1
0000
0000
0000
0000
,  // measure 2
0000
0000
0000
0000
,  // measure 3
0000
0000
0000
0000
,  // measure 4
0000
0000
0000
0000
,  // measure 5
2100
0000
3001
0000
0010
0100
0010
0000
,  // measure 6
0102
0000
1003
0000
0010
0100
0010
0000
,  // measure 7
2100
0000
3001
0000
0001
0010
0100
1000
,  // measure 8
0020
0100
1000
0130
,  // measure 9
1002
0000
0013
0000
0001
0010
0100
1000
,  // measure 10
0102
0000
1003
0000
1000
0100
0001
0010
,  // measure 11
0100
0010
0100
0000
0001
1000
0001
0000
,  // measure 12
0010
0100
0010
0000
1000
0010
1000
0000
,  // measure 13
0012
0000
0103
0000
1000
0100
0010
0001
,  // measure 14
2100
0000
3010
0000
0100
0001
0010
0100
,  // measure 15
0010
0100
0010
0000
0001
1000
0001
0000
,  // measure 16
0100
0010
0100
0000
0001
1000
0001
0000
,  // measure 17
1000
0001
0010
0100
2000
0000
3000
0001
,  // measure 18
2000
0000
3000
0010
0200
0000
0300
0100
,  // measure 19
0010
1000
0001
0020
0030
0200
0300
0010
,  // measure 20
0002
0000
0003
0010
0200
0000
0300
0000
,  // measure 21
0000
0012
0203
2300
,  // measure 22
3010
0000
0100
0000
0001
0000
0010
0200
,  // measure 23
0000
0000
0000
0000
,  // measure 24
0301
0010
1000
0100
,  // measure 25
1000
0100
0010
0000
0001
0010
0100
0000
,  // measure 26
1000
0001
0100
0000
0001
1000
0010
0000
,  // measure 27
1000
0010
0100
0000
0001
0100
0010
1000
,  // measure 28
0002
0010
1000
0103
,  // measure 29
1000
0100
0010
0100
0020
0000
0030
0001
,  // measure 30
0020
0000
0030
0001
2000
0000
3000
0000
,  // measure 31
0010
0100
1000
0002
0003
2000
3000
0010
,  // measure 32
0100
0002
0000
0103
0010
2000
0000
3000
,  // measure 33
0000
0021
2030
3200
,  // measure 34
0301
0000
0100
0000
1000
0000
0010
0200
,  // measure 35
0000
0000
0000
0000
,  // measure 36
0310
0001
0100
1000
,  // measure 37
1000
0001
0010
0000
0100
0010
0100
0000
,  // measure 38
0010
0001
1000
0000
0010
0100
0010
0000
,  // measure 39
1000
0010
0001
0000
0100
1000
0100
0001
,  // measure 40
0100
1000
0010
0100
,  // measure 41
0001
0100
0010
0000
1000
0001
0010
0001
,  // measure 42
1000
0100
1000
0000
0001
0100
0010
0100
,  // measure 43
0001
0010
0100
0000
1000
0100
0010
0001
,  // measure 44
1000
0010
0001
0000
1000
0100
0001
1000
,  // measure 45
0010
0100
0001
0010
0100
1000
0010
0000
,  // measure 46
1000
0100
0010
0001
1000
0100
1000
0000
,  // measure 47
0001
0100
0010
0100
0001
0010
0100
1000
,  // measure 48
0001
0000
0000
0000
0000
0000
1000
0000
0000
0010
0000
0000
0100
0000
0010
0000
1000
0000
0001
0000
0010
0000
0001
0000
;
