#TITLE:合体せよ!ストロングイェーガー!!;
#SUBTITLE:;
#ARTIST:L.E.D.;
#TITLETRANSLIT:The Strong Jaeger;
#SUBTITLETRANSLIT:;
#ARTISTTRANSLIT:;
#GENRE:;
#CREDIT:xRGTMx;
#MENUCOLOR:;
#METERTYPE:DDR;
#BANNER:The Strong Jaeger.png;
#BACKGROUND:The Strong Jaeger-bg.png;
#LYRICSPATH:;
#CDTITLE:;
#MUSIC:The Strong Jaeger.mp3;
#OFFSET:0.000;
#SAMPLESTART:99.460;
#SAMPLELENGTH:12.000;
#SELECTABLE:YES;
#LISTSORT:;
#BPMS:0.000=155.000;
#STOPS:33.000=0.774
,63.000=0.774
,93.000=0.774
,191.000=1.548
,196.000=1.548
,243.000=1.161
;
#BGCHANGES:;
#ATTACKS:;

//---------------dance-single - xRGTMx----------------
#NOTES:
     dance-single:
     xRGTMx:
     Hard:
     13:
     0.628,0.543,0.256,0.082,0.272: // measure 1
0000
0000
0000
0000
,  // measure 2
0000
0000
0000
0000
1010
0000
0000
0010
0000
0000
1000
0000
0000
0001
0000
0000
,  // measure 3
0010
0000
0001
0000
0011
0000
0000
0001
0000
0000
1000
0000
0000
0010
0000
0000
,  // measure 4
1000
0000
0001
0000
1001
0000
0000
0100
0000
0000
0010
0000
0000
1000
0000
0000
,  // measure 5
0001
0000
1000
0000
1010
0000
0000
1000
0000
0000
0001
0000
0000
1000
0000
0000
,  // measure 6
0100
0000
0010
0000
0011
0000
0000
0100
0000
0000
1000
0000
0000
0100
0000
0000
,  // measure 7
0010
0000
0001
0000
1100
0000
0000
0010
0000
0000
1000
0000
0000
0001
0000
0000
,  // measure 8
1000
0000
0010
0000
0101
0000
0000
0010
0000
0000
1100
0000
0000
0010
0000
0000
,  // measure 9
1001
0100
2001
0000
3010
0000
1000
0001
,  // measure 10
1000
0010
0100
0010
0001
0010
1000
0001
,  // measure 11
0010
0100
1000
0001
0100
0001
1000
0100
,  // measure 12
1000
0000
0010
0000
0100
0000
0001
0000
1000
0000
0001
0000
0100
0000
0000
0100
,  // measure 13
0010
0000
0000
0010
0100
0000
0000
0000
2001
0000
0000
0000
3001
0000
1000
0000
,  // measure 14
0001
0100
0010
0100
1000
0100
0001
1000
,  // measure 15
0100
0010
0001
1000
0010
1000
0001
0010
,  // measure 16
0001
0100
0010
1000
0001
0100
0020
0030
,  // measure 17
1001
0000
1000
0001
1000
0001
0100
0010
,  // measure 18
1000
0001
0010
0010
0100
0100
0010
0010
,  // measure 19
0100
0100
1000
0001
1000
0100
0010
0001
,  // measure 20
1000
0010
1000
1000
0001
0001
1000
1000
,  // measure 21
0001
0001
1000
0001
1000
0001
0010
0100
,  // measure 22
1000
0001
0100
0100
0010
0010
0100
0100
,  // measure 23
0010
0010
1000
0001
1000
0010
0100
0001
,  // measure 24
1000
0001
2000
3000
1001
1001
1000
0010
,  // measure 25
0000
1000
0000
0000
0001
0000
0000
0010
0000
0000
0100
0000
1000
0000
0000
0100
,  // measure 26
0000
0000
0010
0000
0100
0000
0000
1000
0000
0000
1001
0000
1001
0000
1000
0000
,  // measure 27
0000
0010
0000
0000
0100
0000
0000
0001
0000
0000
1000
0000
0100
0000
0000
0010
,  // measure 28
0000
0000
0001
0000
0000
1000
0000
0000
0010
0000
1000
0000
1100
0000
0000
0000
,  // measure 29
0010
0001
1000
0001
,  // measure 30
0100
0000
0000
0000
0010
0000
0000
0010
1000
0000
0001
0000
1000
0000
0001
0000
,  // measure 31
1000
0100
0010
0001
0100
0010
1000
0001
,  // measure 32
0010
0100
1000
0001
1000
0010
0100
0001
,  // measure 33
0100
0001
0000
0100
0001
0000
1000
0001
0000
1000
0100
0000
1000
0000
0100
0000
,  // measure 34
0010
0100
1000
0001
0100
0010
0100
0001
,  // measure 35
1000
0100
0000
1000
0001
0000
0100
0001
0000
1000
0100
0000
1000
0000
0001
0000
,  // measure 36
0100
0010
1000
1000
0001
0001
1000
0001
,  // measure 37
1000
0010
0000
0010
0100
0000
0100
0001
0000
0001
1000
0000
0100
0000
0010
0000
,  // measure 38
0001
1000
0010
0100
0001
1000
0001
0010
,  // measure 39
0100
1000
0000
1000
0010
0000
0010
0100
0000
0100
0001
0000
0001
0000
1000
0000
,  // measure 40
0010
0100
0001
1000
0100
0010
0100
1000
,  // measure 41
0100
1000
0000
0100
1000
0000
0001
1000
0000
0001
0100
0000
0001
0000
0100
0000
,  // measure 42
0010
0100
0001
1000
0100
0010
0100
1000
,  // measure 43
0001
0100
0000
0001
1000
0000
0100
1000
0000
0001
0100
0000
0001
0000
1000
0000
,  // measure 44
0100
0010
0001
0001
1000
1000
0001
1000
,  // measure 45
0001
0010
0000
0010
0100
0000
0100
1000
0000
1000
0001
0000
0100
0000
0010
0000
,  // measure 46
1000
0001
0010
0100
1000
0001
1000
0010
,  // measure 47
0100
0001
0000
0001
0010
0000
0010
0100
0000
0100
1000
0000
1000
0000
0001
0000
,  // measure 48
0010
0100
1000
0001
0100
0010
2002
0000
,  // measure 49
0000
0000
3003
0000
0000
0110
0000
0220
,  // measure 50
0000
0000
0000
0000
0330
0000
0000
0000
0000
0000
1000
0001
1000
0000
0000
0000
,  // measure 51
0101
1000
0011
1000
,  // measure 52
0110
0001
0110
1000
,  // measure 53
0110
0101
1010
1100
,  // measure 54
0011
0000
1001
0000
0110
0000
1000
0001
,  // measure 55
1000
0100
0010
0001
0100
0010
1000
0001
,  // measure 56
0010
0100
1000
0001
0100
0010
1000
0100
,  // measure 57
0010
0100
1000
0001
0100
0010
1000
0100
,  // measure 58
0010
0100
1000
0001
0100
0010
1000
0100
,  // measure 59
0001
0100
1000
0001
0100
0010
1000
0100
,  // measure 60
0010
0001
0100
0010
1000
0100
0001
0100
,  // measure 61
1000
0001
0100
0010
1000
0100
0020
0000
,  // measure 62
0130
0000
0000
1000
0000
0000
0001
0000
0000
0100
0001
0000
0100
0000
0010
0000
,  // measure 63
1000
0000
0000
0100
0000
0000
1000
0000
0000
0100
0010
0000
0001
0000
1000
0000
,  // measure 64
0010
0010
0100
0100
0010
0010
0100
0100
,  // measure 65
0001
0001
1000
1000
0001
0001
1000
1000
,  // measure 66
0001
0000
0000
0100
0000
0000
0010
0000
0000
1000
0100
0000
0010
0000
0001
0000
,  // measure 67
0100
0000
0000
0010
0000
0000
1000
0000
0000
0100
0010
0000
0001
0000
0100
0000
,  // measure 68
0010
0010
0100
0100
0010
0010
0100
0100
,  // measure 69
0001
0001
1000
1000
0001
0001
1000
1000
,  // measure 70
0200
0300
0000
0000
;

//---------------dance-single - xRGTMx----------------
#NOTES:
     dance-single:
     xRGTMx:
     Medium:
     10:
     0.426,0.400,0.115,0.231,0.000: // measure 1
0000
0000
0000
0000
,  // measure 2
0000
0000
1010
0000
0000
1000
0000
0000
,  // measure 3
1000
0001
0010
0000
0000
0010
0000
0000
,  // measure 4
0010
0100
1000
0000
0000
1000
0000
0000
,  // measure 5
1000
0001
0100
0000
0000
0100
0000
0000
,  // measure 6
0010
0100
0001
0000
0000
1000
0000
0000
,  // measure 7
0001
0010
0100
0000
0000
0100
0000
0000
,  // measure 8
1000
0010
1000
0000
0000
0001
0000
0000
,  // measure 9
0010
0100
2000
0000
3001
0000
1000
0000
,  // measure 10
0010
0000
0100
0010
1000
0000
0100
0000
,  // measure 11
0010
0100
1100
1000
,  // measure 12
0001
0000
0100
0001
0010
0000
0200
0000
,  // measure 13
1000
0010
1300
0001
,  // measure 14
1000
0000
0010
0100
0002
0000
0010
0000
,  // measure 15
0010
1000
1003
1000
,  // measure 16
0001
0010
0100
0010
0100
0000
1000
0000
,  // measure 17
1000
0001
1000
0000
0100
0000
0010
0000
,  // measure 18
0001
2000
3002
2003
,  // measure 19
3002
0103
0010
1000
,  // measure 20
0001
0000
0020
0000
0230
0000
0320
0100
,  // measure 21
0230
0000
1300
0000
0100
0000
0010
0100
,  // measure 22
0010
0002
0203
0320
,  // measure 23
0230
0000
0301
0000
1000
0100
0010
0000
,  // measure 24
0100
1001
0000
1000
,  // measure 25
0001
0100
0000
0010
0100
0000
0001
0000
,  // measure 26
1000
0100
0010
0000
0100
0000
1000
0000
,  // measure 27
0001
0100
0000
0010
0100
0000
0001
0000
,  // measure 28
0010
0100
1000
0000
0001
0000
1001
0000
,  // measure 29
1000
0001
1000
0010
,  // measure 30
0100
0010
0100
0001
,  // measure 31
1000
0001
1000
0100
,  // measure 32
0010
0100
0010
0002
,  // measure 33
0013
0000
0100
1000
0001
0000
0100
0000
,  // measure 34
0200
0010
0310
1000
,  // measure 35
0010
0000
0100
0001
1000
0000
0001
0000
,  // measure 36
0002
1000
1003
0200
,  // measure 37
0310
0000
0100
1000
0001
0000
0200
0000
,  // measure 38
1000
0001
0301
0100
,  // measure 39
1000
0000
0100
0001
2000
0000
0100
0000
,  // measure 40
0010
0001
3001
1000
,  // measure 41
0100
0010
0100
1000
0100
0000
0010
0000
,  // measure 42
0001
0100
0010
0000
1010
0000
1000
0000
,  // measure 43
0001
0100
0010
0100
0001
0000
1000
0000
,  // measure 44
0100
0010
0100
0000
1001
0000
1000
0000
,  // measure 45
0010
0100
0001
1000
0100
0000
0010
0000
,  // measure 46
0100
1000
0010
0000
0110
0000
0100
0000
,  // measure 47
0010
0100
0001
1000
0100
0000
0010
0100
,  // measure 48
1000
0001
0100
0010
0100
0000
1001
0000
,  // measure 49
0000
0000
0000
0000
0000
0110
0000
1001
,  // measure 50
0000
0000
0000
0000
0000
0001
2000
0000
,  // measure 51
0100
0001
0010
3200
,  // measure 52
1000
0010
0001
0320
,  // measure 53
0001
0100
1000
0032
,  // measure 54
0100
1000
0010
1003
,  // measure 55
0100
0010
0100
0000
1000
0000
0001
0100
,  // measure 56
0010
0100
0001
0000
1001
0000
1000
0000
,  // measure 57
0001
0100
0010
0000
0100
0000
0010
1000
,  // measure 58
0100
0010
0001
0000
1001
0000
1000
0000
,  // measure 59
0001
0000
1000
0100
0010
0000
0100
0000
,  // measure 60
1000
0010
0100
0010
1000
0000
0001
0010
,  // measure 61
0100
1000
0001
0000
0100
0000
2001
0000
,  // measure 62
3001
0000
0010
0100
1000
0000
0010
0000
,  // measure 63
0100
0000
0010
1000
0100
0000
0010
0000
,  // measure 64
0100
1000
0001
0000
0100
0001
1000
0000
,  // measure 65
0010
1000
0001
0000
0010
0001
1000
0000
,  // measure 66
0100
0000
0010
0000
0100
1000
0001
0000
,  // measure 67
0100
0000
0010
0000
0100
0001
1000
0000
,  // measure 68
0010
1000
0100
0000
0010
0001
0100
0000
,  // measure 69
0010
0000
0100
0000
0001
1000
0100
0000
,  // measure 70
2002
3003
0000
0000
;

//---------------dance-single - xRGTMx----------------
#NOTES:
     dance-single:
     xRGTMx:
     Easy:
     7:
     0.292,0.343,0.132,0.082,0.000: // measure 1
0000
0000
0000
0000
,  // measure 2
0000
1001
0000
1000
,  // measure 3
0000
0001
0000
0001
,  // measure 4
0010
0100
0000
0100
,  // measure 5
0000
1000
0000
1000
,  // measure 6
0010
0110
0000
0100
,  // measure 7
0000
0001
0000
0001
,  // measure 8
1000
0100
0000
0010
,  // measure 9
0100
1001
0000
1000
,  // measure 10
0010
2000
0000
0001
,  // measure 11
0001
3001
0000
0001
,  // measure 12
0010
0001
0000
1000
,  // measure 13
0001
1000
0001
0000
0000
0000
1010
0000
,  // measure 14
2000
0001
0000
0100
,  // measure 15
0100
3001
0000
0001
,  // measure 16
0010
0100
1000
1001
,  // measure 17
0000
1000
0100
0010
,  // measure 18
0100
1000
1000
0001
,  // measure 19
0001
1000
0010
0100
,  // measure 20
0001
0000
1000
0000
0001
1000
0001
0000
,  // measure 21
0000
0010
0100
1000
,  // measure 22
0001
0100
0100
0010
,  // measure 23
0010
0100
0001
0010
,  // measure 24
0100
1100
0000
2000
,  // measure 25
0000
0000
0000
3002
,  // measure 26
0000
0000
0000
0203
,  // measure 27
0000
0000
0000
0320
,  // measure 28
0000
0000
0000
0130
,  // measure 29
0100
0100
0100
0100
,  // measure 30
0100
0100
0100
0010
,  // measure 31
0010
0010
0010
0010
,  // measure 32
0010
0010
0010
1000
,  // measure 33
0000
0000
1001
0000
0000
0000
0001
0010
,  // measure 34
0001
1000
0000
0001
,  // measure 35
0000
0000
1001
0000
0000
0000
1000
0010
,  // measure 36
1000
0001
0000
1000
,  // measure 37
0000
0000
1001
0000
0000
0000
0001
0100
,  // measure 38
0001
1000
0000
0001
,  // measure 39
0000
0000
1001
0000
0000
0000
1000
0100
,  // measure 40
1000
0001
0000
1000
,  // measure 41
0001
1000
0000
0100
,  // measure 42
0010
0100
0010
0000
0000
0000
0001
0000
,  // measure 43
1000
0001
0000
0100
,  // measure 44
0010
0100
0010
0000
0000
0000
1000
0000
,  // measure 45
0001
1000
0000
0010
,  // measure 46
0100
0010
0100
0000
0000
0000
0001
0000
,  // measure 47
1000
0001
0000
0010
,  // measure 48
0100
0010
0100
0000
0000
0000
1001
0000
,  // measure 49
0000
0000
0000
0000
0000
1000
0000
0001
,  // measure 50
0000
0000
0000
1000
,  // measure 51
0100
0000
0100
0001
,  // measure 52
0100
0000
0100
1000
,  // measure 53
0010
0100
0001
1000
,  // measure 54
0110
2002
3003
1000
,  // measure 55
0100
0001
0100
1000
,  // measure 56
0010
0100
0001
1000
,  // measure 57
0100
0010
0001
0100
,  // measure 58
0010
0100
0010
0000
0000
0000
0001
0000
,  // measure 59
0100
1000
0100
0001
,  // measure 60
0010
0100
1000
0001
,  // measure 61
0100
0010
1000
1002
,  // measure 62
1003
0100
0010
0100
,  // measure 63
1000
0000
0001
1000
0001
0000
0000
0000
,  // measure 64
0100
0100
0110
0000
,  // measure 65
0010
0010
0110
0000
,  // measure 66
0001
0010
0100
1000
,  // measure 67
0001
0000
0100
0010
0100
0000
0000
0000
,  // measure 68
0010
1000
0100
0010
,  // measure 69
0001
1000
0001
0000
1000
0001
1000
0000
,  // measure 70
0020
0030
0000
0000
;

//---------------dance-single - xRGTMx----------------
#NOTES:
     dance-single:
     xRGTMx:
     Beginner:
     3:
     0.210,0.199,0.173,0.025,0.000: // measure 1
0000
0000
0000
0000
,  // measure 2
0000
1000
0000
0000
,  // measure 3
0000
0001
0000
0000
,  // measure 4
0000
0100
0000
0000
,  // measure 5
0000
0010
0000
0000
,  // measure 6
0000
1001
0000
0000
,  // measure 7
0000
0110
0000
0000
,  // measure 8
0000
1001
0000
0000
,  // measure 9
0000
0110
0000
1000
,  // measure 10
1000
1000
0000
0001
,  // measure 11
0001
0001
0000
0100
,  // measure 12
0100
0100
0000
0010
,  // measure 13
0010
0010
0000
1000
,  // measure 14
1000
1000
0000
0001
,  // measure 15
0001
0001
0000
0100
,  // measure 16
0100
0100
0000
0020
,  // measure 17
0030
1000
1000
1000
,  // measure 18
0000
1000
0000
1001
,  // measure 19
0000
0001
0001
0001
,  // measure 20
0000
0001
0000
1001
,  // measure 21
0000
0100
0100
0100
,  // measure 22
0000
0100
0000
0110
,  // measure 23
0000
0010
0010
0010
,  // measure 24
0000
1001
0000
2000
,  // measure 25
3000
0000
0000
0000
,  // measure 26
0000
0000
0000
0002
,  // measure 27
0003
0000
0000
0000
,  // measure 28
0000
0000
0000
1000
,  // measure 29
0000
1000
0000
0001
,  // measure 30
0000
0001
0000
0100
,  // measure 31
0000
0100
0000
0010
,  // measure 32
0000
0010
0000
1000
,  // measure 33
1000
1000
0000
0100
,  // measure 34
0100
0100
0000
1000
,  // measure 35
1000
1000
0000
0001
,  // measure 36
0001
0001
0000
1000
,  // measure 37
1000
1000
0000
0010
,  // measure 38
0010
0010
0000
1000
,  // measure 39
1000
1000
0000
0001
,  // measure 40
0001
0001
0000
0100
,  // measure 41
0100
0100
0000
0010
,  // measure 42
0010
0010
0000
1000
,  // measure 43
1000
1000
0000
0001
,  // measure 44
0001
0001
0000
0010
,  // measure 45
0010
0010
0000
0100
,  // measure 46
0100
0100
0000
1000
,  // measure 47
1000
1000
0000
0001
,  // measure 48
0001
0001
0000
1001
,  // measure 49
0000
0000
0000
0000
0000
0010
0000
0010
,  // measure 50
0000
0000
0000
1001
,  // measure 51
0000
0000
0000
0110
,  // measure 52
0000
0000
0000
1001
,  // measure 53
0000
0000
0000
0110
,  // measure 54
0000
0000
0000
1000
,  // measure 55
1000
1000
0000
0100
,  // measure 56
0000
0110
0000
0010
,  // measure 57
0010
0010
0000
0001
,  // measure 58
0000
1001
0000
1000
,  // measure 59
1000
1000
0000
0010
,  // measure 60
0000
0110
0000
0100
,  // measure 61
0100
0100
0000
0001
,  // measure 62
0001
0001
0001
0000
,  // measure 63
1000
1000
1000
0000
,  // measure 64
0010
0000
0110
0000
,  // measure 65
0100
0000
0110
0000
,  // measure 66
1000
1000
1000
0000
,  // measure 67
0001
0001
0001
0000
,  // measure 68
0010
0000
0110
0000
,  // measure 69
0100
0000
0110
0000
,  // measure 70
1001
0000
0000
0000
;
