#TITLE:The Strong Jaeger (Ryu Remix);
#SUBTITLE:;
#ARTIST:L.E.D.;
#TITLETRANSLIT:The Strong Jaeger;
#SUBTITLETRANSLIT:;
#ARTISTTRANSLIT:;
#GENRE:;
#CREDIT:;
#MENUCOLOR:;
#METERTYPE:DDR;
#BANNER:The Strong Jaeger (Ryu Remix).png;
#BACKGROUND:The Strong Jaeger (Ryu Remix)-bg.png;
#LYRICSPATH:;
#CDTITLE:;
#MUSIC:The Strong Jaeger (Ryu Remix).mp3;
#OFFSET:-2.200;
#SAMPLESTART:67.220;
#SAMPLELENGTH:12.000;
#SELECTABLE:YES;
#LISTSORT:;
#BPMS:0.000=155.000,67.000=310.000,68.000=155.000,86.000=77.500,110.000=155.000,126.000=310.000,142.000=155.000,142.500=310.000,143.500=155.000,144.000=310.000,145.000=155.000,145.500=310.000,146.500=155.000,147.000=310.000,148.000=77.500,149.000=155.000,150.000=310.000,152.000=155.000;
#STOPS:64.000=1.161
,65.000=1.161
,66.000=1.161
,67.000=0.194
,68.000=0.387
;
#BGCHANGES:;
#ATTACKS:;

//---------------dance-single - xRGTMx----------------
#NOTES:
     dance-single:
     xRGTMx:
     Challenge:
     15:
     0.703,0.822,0.582,0.171,0.599: // measure 1
1010
0000
0000
0000
1000
0000
0001
0000
1000
0001
0000
0000
0010
0000
0100
0000
,  // measure 2
1100
0000
0000
0000
1000
0000
0001
0000
1000
0001
0000
0000
0010
0000
0010
0001
,  // measure 3
0100
0000
0000
0000
0001
0000
1000
0000
0001
1000
0000
0000
0010
0000
0100
0000
,  // measure 4
0101
0000
0000
0000
0001
0000
1000
0000
0001
1000
0000
0000
0010
1000
0100
1000
,  // measure 5
0010
0000
0000
0000
1001
0000
0010
0000
0100
0010
0000
0000
0100
0000
0001
0000
,  // measure 6
0110
0000
0000
0000
0101
0000
1000
0000
1000
0010
0000
0000
0100
0001
0010
0100
,  // measure 7
1000
0000
0000
0000
1010
0000
0100
0000
0001
0010
0000
0000
0100
0000
0010
0000
,  // measure 8
2001
0010
0000
0010
0000
0010
3000
0010
,  // measure 9
1000
0000
0010
0000
1000
0010
0000
0010
1000
0000
0001
0000
1000
0001
0000
0001
,  // measure 10
1000
0000
0100
0000
0010
0001
0000
0001
0100
0000
0010
0000
0100
0001
0000
0001
,  // measure 11
1000
0000
0001
0000
0100
0001
0000
1000
0010
0000
0100
0000
0010
1000
0000
0001
,  // measure 12
0010
0000
0100
0000
0010
0001
0000
1000
0010
0000
0100
0000
0001
1000
0001
1000
,  // measure 13
0001
0000
0010
0000
0100
0010
0000
0010
0001
0000
0100
0000
0010
1000
0001
1000
,  // measure 14
0001
0000
1000
0000
0100
0010
0000
0010
0001
0000
0100
0000
0010
1000
0010
1000
,  // measure 15
0001
0000
0100
0001
0100
0000
0001
1000
0001
0000
1000
0100
1000
0000
0001
1000
,  // measure 16
0001
0100
0001
0100
0001
0100
0001
0100
0010
1000
0010
1000
0010
1000
0010
1000
,  // measure 17
0100
1001
0110
1001
,  // measure 18
1001
0110
2002
0000
,  // measure 19
0000
0000
0000
0000
,  // measure 20
0000
0000
0000
0000
,  // measure 21
0000
0000
0000
0000
,  // measure 22
0000
0000
3003
0000
1001
0010
0100
0001
,  // measure 23
1000
0000
1000
0100
0000
0100
0001
0000
0101
0000
0100
0000
1000
0000
0010
0000
,  // measure 24
0100
0000
0100
0001
0000
0001
1000
0000
0011
0000
1000
0000
0010
0000
0100
0000
,  // measure 25
0001
0000
0001
1000
0000
1000
0010
0000
1010
0000
1000
0010
0000
0010
0100
0000
,  // measure 26
0101
0000
0001
1000
0000
1000
1100
0000
0011
0000
0100
0000
1000
0000
1010
0000
,  // measure 27
0101
0010
0001
1100
0011
1000
0010
1001
,  // measure 28
0110
0000
0001
0000
1000
0000
1010
0000
0001
0100
0000
0010
0100
0001
0000
1000
,  // measure 29
0100
0010
0000
0001
1000
0001
0000
1000
0010
0001
0000
0001
0010
1000
0000
1000
,  // measure 30
0001
0000
0000
1000
0000
0000
0000
0000
0000
0001
0000
0000
0010
0000
0000
0100
0000
0000
1000
0000
0000
0001
0000
0000
1000
0000
0000
0000
0100
0000
0000
0000
0010
0000
0000
0000
0100
0000
0000
0000
0010
0000
0000
0000
0001
0000
0000
0000
,  // measure 31
1000
0010
0100
0010
0100
0001
1000
0100
0001
1000
0010
0001
,  // measure 32
1000
0000
0100
0000
0010
0000
0001
0000
0000
1000
0000
0000
2002
0000
0000
0000
0000
0000
0000
0000
0000
0000
0000
0000
,  // measure 33
0000
0000
0000
0000
,  // measure 34
0000
0000
0000
0000
,  // measure 35
0000
0000
0003
0000
,  // measure 36
0001
0000
0000
0000
0000
0000
0000
0000
3001
0000
2200
0000
0000
3300
0001
0000
,  // measure 37
2020
0000
0000
3030
0001
0000
2200
0000
0000
3300
0001
0000
2020
0000
0000
3030
,  // measure 38
0002
2003
3002
0000
,  // measure 39
1003
0011
1100
1010
,  // measure 40
0101
0000
0010
1000
0100
0010
0100
1000
,  // measure 41
0001
1100
0011
0101
,  // measure 42
1010
0000
0100
0001
0010
0100
1000
0000
,  // measure 43
0001
1100
0011
0101
,  // measure 44
1010
0000
0100
0001
0010
0100
0010
0001
,  // measure 45
1000
0000
0001
0011
0000
1000
1010
0000
,  // measure 46
0101
0000
1000
1100
0000
0001
0101
0000
,  // measure 47
1000
0000
0000
0001
0100
0000
0000
0010
1000
0000
0000
1000
0100
0000
0000
0010
,  // measure 48
0001
1000
0100
1000
0010
0100
0001
0000
,  // measure 49
0001
0000
0000
1000
0001
0000
0000
0010
0001
0000
0000
0001
0010
0000
0000
0100
,  // measure 50
1000
0100
0010
0001
0100
0010
1000
0000
,  // measure 51
1001
0100
1010
0100
0011
0100
1001
0010
,  // measure 52
1100
0000
0010
0001
0100
0010
0100
0001
,  // measure 53
1000
0000
0101
0101
0000
1100
1100
0000
,  // measure 54
0011
0000
1010
1010
0000
0011
0011
0000
,  // measure 55
1000
0000
1002
0000
1003
0000
0100
0010
0001
0000
0010
0000
0001
0000
1000
0000
,  // measure 56
0001
0000
2001
0000
3001
0000
0100
0010
1000
0000
0010
0000
1000
0000
0001
0000
,  // measure 57
1000
0000
0000
0000
0000
0000
0120
0000
0000
0000
0000
0000
0130
0000
0000
0000
0000
0000
0010
0000
0000
0100
0000
0000
0010
0000
0000
0000
1000
0000
0000
0000
0001
0000
0000
0000
0100
0000
0000
0000
1000
0000
0000
0000
0001
0000
0000
0000
,  // measure 58
0010
1000
0100
0001
1000
0010
0001
0000
0000
1001
0000
0000
,  // measure 59
1000
0000
0001
0000
1000
0100
0000
0100
0010
0000
0010
0001
0000
0001
0100
0000
,  // measure 60
0010
0000
0010
1000
0000
1000
0001
0000
0001
0010
0000
0010
0100
0000
0100
0000
,  // measure 61
0010
0000
0001
0000
0100
0010
0000
0010
1000
0000
1000
0100
0000
0100
0010
0000
,  // measure 62
0001
0000
0001
0100
0000
0010
1000
0000
0001
0100
0000
0010
1000
0001
1000
0000
,  // measure 63
1000
0000
0001
0000
1000
0010
0000
0010
0100
0000
0100
0001
0000
0001
0010
0000
,  // measure 64
0100
0000
0100
1000
0000
1000
0001
0000
0001
0100
0000
0100
0010
0000
0010
0000
,  // measure 65
0100
0000
0001
0000
0010
0100
0000
0100
1000
0000
1000
0010
0000
0010
0100
0000
,  // measure 66
0001
0000
0001
0010
0000
0100
1000
0000
0001
0010
0000
0100
1000
0000
1000
0000
,  // measure 67
0002
0003
0000
0000
;
