#TITLE:The Sign;
#SUBTITLE:;
#ARTIST:ACE OF BASE;
#TITLETRANSLIT:;
#SUBTITLETRANSLIT:;
#ARTISTTRANSLIT:;
#GENRE:;
#CREDIT:xRGTMx;
#MENUCOLOR:;
#METERTYPE:DDR;
#BANNER:The Sign.png;
#BACKGROUND:The Sign-bg.png;
#LYRICSPATH:;
#CDTITLE:;
#MUSIC:The Sign.mp3;
#OFFSET:-0.040;
#SAMPLESTART:51.960;
#SAMPLELENGTH:20.000;
#SELECTABLE:YES;
#LISTSORT:;
#BPMS:0.000=97.000;
#STOPS:;
#BGCHANGES:;
#ATTACKS:;

//---------------dance-single - xRGTMx----------------
#NOTES:
     dance-single:
     xRGTMx:
     Easy:
     4:
     0.158,0.179,0.072,0.024,0.000: // measure 1
0000
0000
0000
0000
,  // measure 2
0000
0000
0000
0000
,  // measure 3
1000
1000
1000
0000
,  // measure 4
0001
0001
0001
1001
,  // measure 5
1000
0000
0010
0000
,  // measure 6
0001
0000
0010
0000
,  // measure 7
1000
0000
0100
0000
,  // measure 8
0001
0000
0100
0000
,  // measure 9
1000
0010
0000
0000
,  // measure 10
0001
0010
0000
0000
,  // measure 11
1000
0100
0000
0000
,  // measure 12
0001
0100
0000
0000
,  // measure 13
2000
0000
3002
0000
,  // measure 14
1003
1000
1000
0000
,  // measure 15
0010
0010
0010
0000
,  // measure 16
0001
0001
0001
0000
,  // measure 17
0010
0010
0010
0000
,  // measure 18
1000
1000
1000
0000
,  // measure 19
0010
0010
0010
0000
,  // measure 20
0001
0001
0001
0000
,  // measure 21
0100
0100
0100
0000
,  // measure 22
1000
0001
1000
0000
,  // measure 23
0001
1000
0001
0000
,  // measure 24
1000
0001
1000
0000
,  // measure 25
0001
1000
0001
0000
,  // measure 26
0100
0010
0100
0000
,  // measure 27
0010
0100
0010
0000
,  // measure 28
0100
0010
0100
0000
,  // measure 29
0010
0100
0010
0000
,  // measure 30
2000
0000
0000
0000
,  // measure 31
3001
0001
0001
0000
,  // measure 32
1000
1000
1000
0000
,  // measure 33
0001
0001
0001
0000
,  // measure 34
1000
1000
1000
0000
,  // measure 35
0010
1000
0010
0000
,  // measure 36
0100
0001
0100
0000
,  // measure 37
0010
1000
0010
0000
,  // measure 38
0100
0001
0100
0000
,  // measure 39
0001
1000
0001
0000
,  // measure 40
0100
0010
0100
0000
,  // measure 41
0001
1000
0001
0000
,  // measure 42
0010
0100
0010
0000
,  // measure 43
0001
0000
1001
0000
,  // measure 44
1000
0000
1001
0000
,  // measure 45
0100
0000
0110
0000
,  // measure 46
0010
0000
0110
0000
,  // measure 47
0001
0000
1001
0000
,  // measure 48
1000
0000
1001
0000
,  // measure 49
0010
0000
0110
0000
,  // measure 50
0100
0000
0110
0000
;

//---------------dance-single - xRGTMx----------------
#NOTES:
     dance-single:
     xRGTMx:
     Medium:
     7:
     0.293,0.300,0.177,0.113,0.000: // measure 1
0000
0000
0000
0000
,  // measure 2
0000
0000
0000
0000
,  // measure 3
1000
0001
0100
0010
,  // measure 4
1000
0100
0010
1001
,  // measure 5
1000
0001
1000
0000
0100
0000
0100
0000
,  // measure 6
0020
0100
0130
0001
,  // measure 7
0001
1000
0001
0000
0100
0000
0100
0000
,  // measure 8
0020
0100
0130
1000
,  // measure 9
0010
1000
0010
0000
0100
0000
0100
0000
,  // measure 10
0010
0001
0010
0000
0100
0000
0100
0000
,  // measure 11
0010
1000
0010
0000
1000
0000
0001
0000
,  // measure 12
0010
0001
0010
0000
2001
0000
3100
0000
,  // measure 13
0200
0000
0320
0000
,  // measure 14
0031
1000
0001
0110
,  // measure 15
1000
0000
0001
0000
1000
0100
0010
0000
,  // measure 16
0100
1000
0001
0100
,  // measure 17
1001
0000
0110
0000
1000
0001
1000
0000
,  // measure 18
0001
1000
0001
0110
,  // measure 19
1000
0000
0001
0000
1000
0010
0100
0000
,  // measure 20
0010
1000
0001
0010
,  // measure 21
1001
0000
0110
0000
1000
0001
1000
0001
,  // measure 22
0100
0100
0010
0010
,  // measure 23
1000
0001
1000
0001
0100
0000
1001
0000
,  // measure 24
0100
0100
0010
0010
,  // measure 25
0001
1000
0001
1000
0100
0000
1001
0000
,  // measure 26
1000
0010
0100
0001
,  // measure 27
1000
0100
1000
0100
0010
0000
1001
0000
,  // measure 28
0001
0010
0100
1000
,  // measure 29
0001
0100
0001
0100
0010
0000
1001
0000
,  // measure 30
2000
0000
3002
0000
,  // measure 31
1003
0001
1000
0000
0010
0000
0010
0000
,  // measure 32
0200
0010
0310
0001
,  // measure 33
0001
1000
0001
0000
0010
0000
0010
0000
,  // measure 34
0200
0000
0320
0000
,  // measure 35
0031
1000
0110
1001
,  // measure 36
2000
3200
0320
0032
,  // measure 37
1003
0001
0110
1001
,  // measure 38
0010
1000
0100
0001
,  // measure 39
0010
0010
0100
0100
,  // measure 40
0001
1000
0001
1000
0010
0000
1001
0000
,  // measure 41
0010
0010
0100
0100
,  // measure 42
1000
0001
1000
0001
0010
0000
1001
0000
,  // measure 43
0001
0100
0010
1000
,  // measure 44
0001
0010
0001
0010
0100
0000
1001
0000
,  // measure 45
1000
0100
0010
0001
,  // measure 46
1000
0010
1000
0010
0100
0000
1001
0000
,  // measure 47
1000
1000
0001
0001
,  // measure 48
0100
0010
0100
0010
1000
0000
1001
0000
,  // measure 49
0001
0001
1000
1000
,  // measure 50
0100
0010
0100
0010
0001
0000
1001
0000
;

//---------------dance-single - xRGTMx----------------
#NOTES:
     dance-single:
     xRGTMx:
     Hard:
     11:
     0.442,0.402,0.394,0.064,0.052: // measure 1
0000
0000
0000
0000
,  // measure 2
0000
0000
0000
0000
,  // measure 3
1000
0100
0010
0100
1000
0001
0100
0010
,  // measure 4
0100
0001
1000
0100
0010
0001
1001
0000
,  // measure 5
0010
0000
0100
0000
0010
0000
1000
0001
0000
0000
1000
0000
0100
0000
1000
0000
,  // measure 6
0010
0000
0100
0000
0010
0000
1000
0001
0000
0000
0010
0000
0001
0000
0010
0000
,  // measure 7
0100
0000
1000
0000
0100
0000
1000
0001
0000
0000
0100
0000
0001
0000
0010
0000
,  // measure 8
0100
0000
0010
0000
0100
0000
0010
0001
0000
0000
1000
0000
0001
0000
0100
0000
,  // measure 9
0001
0000
1000
0000
0001
0000
0100
0010
0000
0000
1000
0000
0001
0000
1000
0000
,  // measure 10
0001
0000
1000
0000
0001
0000
0010
0100
0000
0000
1000
0000
0001
0000
1000
0000
,  // measure 11
0100
0000
0010
0000
0100
0000
0100
1000
0000
0000
0100
0000
0001
0000
0100
0000
,  // measure 12
0010
0000
0000
0100
0000
0000
0010
0000
0011
0000
1000
0000
0001
0000
1000
0000
,  // measure 13
0020
0000
0000
0030
0200
0000
0000
0300
,  // measure 14
0010
0001
1000
0001
0100
0010
1000
0001
,  // measure 15
1000
0100
0010
0001
1000
0010
0100
0100
,  // measure 16
0001
1000
0001
0010
0100
1000
0010
0001
,  // measure 17
0010
1000
0100
0010
0001
0100
0010
0010
,  // measure 18
1000
0100
0001
0100
1000
0010
1000
0001
,  // measure 19
0100
0001
0010
1000
0010
0001
0100
0100
,  // measure 20
0001
0010
0001
1000
0010
0001
0010
1000
,  // measure 21
0001
1000
0100
0010
0001
0100
0010
0010
,  // measure 22
1001
1010
1100
1001
,  // measure 23
1000
0100
0010
0100
1000
0010
0001
0010
,  // measure 24
1001
0101
0011
1001
,  // measure 25
0001
0100
0010
0100
0001
0010
1000
0010
,  // measure 26
1001
1100
1010
1001
,  // measure 27
1000
0010
0100
0010
1000
0100
0001
0100
,  // measure 28
1001
0011
0101
1001
,  // measure 29
0001
0010
0100
0010
0001
0100
1000
0100
,  // measure 30
2002
0000
0000
3003
0220
0000
0000
0330
,  // measure 31
0100
0000
0010
0000
0100
0000
0001
1000
0000
0000
0001
0000
0010
0000
0001
0000
,  // measure 32
0100
0000
0010
0000
0100
0000
0001
1000
0000
0000
0100
0000
1000
0000
0100
0000
,  // measure 33
0010
0000
0001
0000
0010
0000
0001
1000
0000
0000
0010
0000
1000
0000
0100
0000
,  // measure 34
0010
0000
0000
0011
0000
0000
1001
0000
0110
0000
0000
0000
1001
0000
1000
0001
,  // measure 35
1000
0001
1000
0001
0100
0010
0100
0010
,  // measure 36
1000
0100
0010
0001
0010
1000
0001
0100
,  // measure 37
1000
0010
0001
0100
0001
0010
1000
0100
,  // measure 38
0001
1000
0010
0001
0100
0010
1000
0001
,  // measure 39
1001
0101
0011
1001
,  // measure 40
0001
0010
0100
0010
0001
0100
1000
0100
,  // measure 41
1001
1010
1100
1001
,  // measure 42
1000
0010
0100
0010
1000
0100
0001
0100
,  // measure 43
1001
0011
0101
1001
,  // measure 44
0001
0100
0010
0100
0001
0010
1000
0010
,  // measure 45
1001
1100
1010
1001
,  // measure 46
1000
0100
0010
0100
1000
0010
0001
0010
,  // measure 47
1001
0101
0011
1001
,  // measure 48
0001
0010
0100
0010
0001
0100
1000
0100
,  // measure 49
1001
1010
1100
1001
,  // measure 50
1000
0010
0100
0010
1000
0100
2002
0000
,  // measure 51
3003
0000
0000
0000
;

//---------------dance-single - xRGTMx----------------
#NOTES:
     dance-single:
     xRGTMx:
     Beginner:
     2:
     0.117,0.179,0.056,0.008,0.000: // measure 1
0000
0000
0000
0000
,  // measure 2
0000
0000
0000
0000
,  // measure 3
1000
0000
0000
0000
,  // measure 4
0001
0000
0000
0000
,  // measure 5
0100
0000
0100
0000
,  // measure 6
0010
0000
0010
0000
,  // measure 7
0100
0000
0100
0000
,  // measure 8
0010
0000
0010
0000
,  // measure 9
1000
0000
1000
0000
,  // measure 10
0001
0000
0001
0000
,  // measure 11
1000
0000
1000
0000
,  // measure 12
0001
0000
0001
0000
,  // measure 13
0200
0300
0000
0000
,  // measure 14
0010
0000
0000
0000
,  // measure 15
1000
0000
0000
0000
,  // measure 16
0100
0000
0000
0000
,  // measure 17
0001
0000
0000
0000
,  // measure 18
0010
0000
0000
0000
,  // measure 19
0001
0000
0000
0000
,  // measure 20
0100
0000
0000
0000
,  // measure 21
1000
0000
0000
0000
,  // measure 22
0010
0010
0010
0000
,  // measure 23
1000
1000
1000
0000
,  // measure 24
0100
0100
0100
0000
,  // measure 25
0001
0001
0001
0000
,  // measure 26
0010
0010
0010
0000
,  // measure 27
1000
1000
1000
0000
,  // measure 28
0100
0100
0100
0000
,  // measure 29
0001
0001
0001
0000
,  // measure 30
1001
0000
0000
0000
,  // measure 31
1000
0000
0001
0000
,  // measure 32
1000
0000
0001
0000
,  // measure 33
0100
0000
0010
0000
,  // measure 34
0100
0000
0010
0000
,  // measure 35
1001
0000
0000
0000
,  // measure 36
0110
0000
0000
0000
,  // measure 37
1001
0000
0110
0000
,  // measure 38
1001
0000
0110
0000
,  // measure 39
1000
1000
1000
0000
,  // measure 40
0100
0100
0100
0000
,  // measure 41
0001
0001
0001
0000
,  // measure 42
0010
0010
0010
0000
,  // measure 43
1000
0000
0010
0000
,  // measure 44
0001
0000
0100
0000
,  // measure 45
1000
0000
0010
0000
,  // measure 46
0001
0000
0100
0000
,  // measure 47
1000
0000
0100
0000
,  // measure 48
0001
0000
0010
0000
,  // measure 49
1000
0000
0100
0000
,  // measure 50
0001
0000
0010
0000
;

//---------------dance-single - Chewphoria~----------------
#NOTES:
     dance-single:
     Chewphoria~:
     Edit:
     11:
     0.452,0.600,0.096,0.000,0.161: // measure 1
0000
0000
0000
0000
,  // measure 2
0000
0000
0000
0000
,  // measure 3
1000
0010
1000
0100
1000
0010
1000
0000
,  // measure 4
0001
0010
0001
0100
0001
0010
0001
0000
,  // measure 5
1000
0010
1000
0001
0100
0000
0100
0000
,  // measure 6
1000
0010
1000
0001
0100
0000
0100
0000
,  // measure 7
1000
0100
1000
0100
1000
0000
0010
0000
,  // measure 8
0001
0010
0001
0010
0001
0000
0100
0000
,  // measure 9
0001
0100
0001
0010
0001
0100
0001
0000
,  // measure 10
1000
0100
1000
0010
1000
0100
1000
0000
,  // measure 11
0001
0100
0001
1000
0010
0000
0010
0000
,  // measure 12
0001
0100
0001
1000
0010
0000
0010
0000
,  // measure 13
0001
0010
0001
0010
0100
1000
0100
1000
,  // measure 14
1000
0010
1000
0001
0100
0001
0100
0001
,  // measure 15
1000
0100
1000
0100
1000
0010
0100
0001
,  // measure 16
0010
0100
0010
0001
1000
0010
0100
0001
,  // measure 17
1000
0001
1000
0010
0100
0001
0100
0001
,  // measure 18
1000
0010
0100
0001
1000
0001
0001
0001
,  // measure 19
0100
0010
0100
0010
0100
0010
1000
0001
,  // measure 20
0100
0010
1000
0001
1000
0100
0001
0010
,  // measure 21
0010
0001
0100
1000
0010
1000
0001
0100
,  // measure 22
0100
0000
0010
0000
1000
0001
1000
0001
0100
0000
0000
0000
1001
0000
0100
0000
,  // measure 23
0010
0000
0010
1000
0001
0100
0001
1000
,  // measure 24
0010
0000
0100
0000
0001
0000
1000
0001
0100
0000
0100
0000
0010
0000
0100
0001
,  // measure 25
1000
0000
1000
0010
0011
0000
0011
0000
,  // measure 26
1000
0000
0010
0000
0100
0000
0000
0001
1000
0000
0001
0000
0100
0000
0010
0000
,  // measure 27
1000
0000
1000
0010
0101
0000
0101
0000
,  // measure 28
1000
0000
0001
0000
0100
0001
0100
0001
1000
0000
0010
0000
0100
0000
0001
0000
,  // measure 29
1000
0000
1000
0010
0100
0000
0101
0001
,  // measure 30
1000
0000
1000
0000
1000
0010
1000
0010
,  // measure 31
0100
0001
0100
0001
1000
0010
0100
0001
,  // measure 32
0100
0001
0100
0001
1000
0010
0100
0001
,  // measure 33
0010
1000
0010
1000
0100
0001
0100
0001
,  // measure 34
0100
0001
0010
1000
0100
1000
0010
0001
,  // measure 35
0001
0010
0001
0010
0001
0100
0001
0100
0001
0010
0001
0010
0001
1000
0001
1000
,  // measure 36
0010
0100
0010
1000
0010
0100
0010
1000
0001
0010
0100
1000
0001
0000
0000
0000
,  // measure 37
0010
1000
0010
1000
0010
0100
0010
0100
0001
1000
0001
1000
0001
0010
0001
0010
,  // measure 38
0100
0000
0000
0001
0000
0000
1000
0000
0000
0010
0000
0000
0100
0000
0000
0000
0000
0000
0100
0000
0000
0000
0000
0000
0100
0000
0000
0000
0001
0000
0100
0000
0000
0000
0010
0000
1000
0000
0000
0000
0000
0000
0010
0000
0000
0000
0000
0000
,  // measure 39
0100
0000
0010
0000
1000
0001
1000
0001
0100
0000
0000
0000
1001
0000
0100
0000
,  // measure 40
0010
0000
0010
1000
0001
0100
0001
1000
,  // measure 41
0010
0000
0100
0000
0001
0000
1000
0001
0100
0000
0100
0000
0010
0000
0100
0001
,  // measure 42
1000
0000
1000
0010
0011
0000
0011
0000
,  // measure 43
1000
0000
0010
0000
0100
0000
0000
0001
1000
0000
0001
0000
0100
0000
0010
0000
,  // measure 44
1000
0000
1000
0010
0101
0000
0101
0000
,  // measure 45
1000
0000
0001
0000
0100
0001
0100
0001
1000
0000
0010
0000
0100
0000
0001
0000
,  // measure 46
1000
0000
1000
0010
0100
0000
0101
0001
,  // measure 47
1000
0100
1000
0100
1000
0010
1000
0010
,  // measure 48
0100
0001
0100
0001
1000
0010
0100
0001
,  // measure 49
0100
0001
0100
0001
1000
0010
0100
0001
,  // measure 50
0010
1000
0010
1000
0100
0001
0100
0000
;
