#VERSION:0.82;
#TITLE:The Business (feat. Casha);
#SUBTITLE:;
#ARTIST:Yung Berg;
#TITLETRANSLIT:;
#SUBTITLETRANSLIT:;
#ARTISTTRANSLIT:;
#GENRE:Hip-Hop/Rap;
#ORIGIN:;
#CREDIT:chewi;
#BANNER:The Business (feat. Casha).png;
#BACKGROUND:The Business (feat. Casha)-bg.png;
#PREVIEWVID:;
#JACKET:The Business (feat. Casha)-jacket.png;
#CDIMAGE:;
#DISCIMAGE:;
#LYRICSPATH:;
#CDTITLE:cdtitle.png;
#MUSIC:The Business (feat. Casha).ogg;
#OFFSET:-0.976000;
#SAMPLESTART:44.241993;
#SAMPLELENGTH:15.000000;
#SELECTABLE:YES;
#BPMS:0.000=66.500;
#STOPS:20.000=1.805,
26.000=1.805,
32.000=0.226,
32.250=0.226,
32.500=0.226,
32.750=0.226,
33.000=0.926,
75.000=1.353,
81.500=1.355;
#DELAYS:;
#WARPS:;
#TIMESIGNATURES:0.000=4=4;
#TICKCOUNTS:0.000=4;
#COMBOS:0.000=1;
#SPEEDS:0.000=1.000=0.000=0;
#SCROLLS:0.000=1.000;
#FAKES:;
#LABELS:0.000=Song Start;
#BGCHANGES:-1.200=The Business (feat. Casha).avi=1.000=1=0=0=StretchNoLoop==CrossFade==,
99999=-nosongbg-=1.000=0=0=0 // don't automatically add -songbackground-
;
#KEYSOUNDS:;
#ATTACKS:
;

//---------------dance-single - ----------------
#NOTEDATA:;
#CHARTNAME:;
#STEPSTYPE:dance-single;
#DESCRIPTION:;
#CHARTSTYLE:Pad;
#DIFFICULTY:Beginner;
#METER:2;
#RADARVALUES:0.059510,0.071530,0.010962,0.000000,0.000000,37.000000,1.000000,0.000000,0.000000,0.000000,0.000000,0.000000,0.000000,0.059510,0.071530,0.010962,0.000000,0.000000,37.000000,1.000000,0.000000,0.000000,0.000000,0.000000,0.000000,0.000000;
#CREDIT:chewi;
#NOTES:
// measure 0
0000
0000
0000
0000
,  // measure 1
0000
0000
0000
0000
,  // measure 2
0000
0000
0000
0000
,  // measure 3
0000
0000
0000
0000
,  // measure 4
1000
0000
0000
0001
,  // measure 5
0000
0000
1000
0000
,  // measure 6
0000
0001
0000
0000
,  // measure 7
0010
0000
0000
0100
,  // measure 8
1000
1000
1000
0000
,  // measure 9
0000
0001
0000
0000
,  // measure 10
0100
0000
0100
0000
,  // measure 11
0100
0000
0010
0000
,  // measure 12
0010
0000
0010
0000
,  // measure 13
0100
0000
0100
0000
,  // measure 14
0100
0000
0010
0010
,  // measure 15
0010
0000
0001
0001
,  // measure 16
0001
0000
0100
0100
,  // measure 17
0100
0000
1000
1000
,  // measure 18
1000
0000
0010
0000
,  // measure 19
0000
0010
0000
0000
0000
0000
0000
0100
,  // measure 20
0000
0000
0000
0100
,  // measure 21
0000
0001
0000
1001
;

//---------------dance-single - ----------------
#NOTEDATA:;
#CHARTNAME:;
#STEPSTYPE:dance-single;
#DESCRIPTION:;
#CHARTSTYLE:Pad;
#DIFFICULTY:Easy;
#METER:4;
#RADARVALUES:0.108058,0.119216,0.010962,0.065774,0.000000,62.000000,1.000000,6.000000,0.000000,0.000000,0.000000,0.000000,0.000000,0.108058,0.119216,0.010962,0.065774,0.000000,62.000000,1.000000,6.000000,0.000000,0.000000,0.000000,0.000000,0.000000;
#CREDIT:chewi;
#NOTES:
0000
0000
0000
0000
,
0000
0000
0000
0000
,
0000
0000
0000
0000
,
0000
0000
0000
0000
,
0010
0000
0000
0100
0000
0010
0100
0000
,
0000
0000
0000
0000
1000
0000
0000
0001
,
0000
1000
0001
0000
0000
0000
0000
0000
,
0001
0000
0000
0010
0000
0001
0010
0100
,
2000
0000
3001
0000
1000
0000
0000
0001
,
0000
0000
1000
0001
0200
0000
0000
0000
,
0310
0000
0010
1000
,
0010
1000
0001
0100
,
0001
0100
0001
1000
,
0001
1000
0100
0010
,
0100
0010
0020
0100
,
0001
0130
0002
0100
,
1000
0103
0200
0010
,
0001
0310
2000
0100
,
0001
3100
0010
0000
,
0000
0010
0000
0100
0000
0000
0000
0100
,
0000
0000
0000
0010
0000
0000
0010
0000
,
1000
0001
0000
1001
;

//---------------dance-single - ----------------
#NOTEDATA:;
#CHARTNAME:;
#STEPSTYPE:dance-single;
#DESCRIPTION:;
#CHARTSTYLE:Pad;
#DIFFICULTY:Medium;
#METER:8;
#RADARVALUES:0.170700,0.190746,0.021925,0.043850,0.060293,103.000000,2.000000,4.000000,0.000000,0.000000,0.000000,0.000000,0.000000,0.170700,0.190746,0.021925,0.043850,0.060293,103.000000,2.000000,4.000000,0.000000,0.000000,0.000000,0.000000,0.000000;
#CREDIT:chewi;
#NOTES:
0000
0000
0000
0000
,
0000
0000
0000
0000
,
0000
0000
0000
0000
,
0000
0000
0000
0000
,
1000
0000
0000
0000
0000
0000
0010
0000
0000
0100
0100
0000
0000
0000
0000
0000
,
0001
1000
0000
0001
0000
1000
0000
0000
0001
0000
0000
0000
0000
0000
1000
0000
,
0000
0100
0100
0000
0000
0000
0000
0000
0010
0100
0000
0010
0000
0100
0000
0000
,
0010
0000
0000
0000
0000
0000
0001
0000
0000
1000
1000
0000
0100
0000
1000
0000
,
0001
1000
0001
1000
1001
0000
0000
0000
0100
0000
0010
0000
0100
0000
0001
0000
,
0000
1000
0100
0000
1000
0001
0010
0001
,
1000
0000
2000
3010
,
0001
0100
1000
0000
0020
0000
0031
0000
,
0100
1000
0010
0000
0002
0000
0103
0000
,
1000
0010
0001
0000
0200
0000
1300
0000
,
0010
0001
0100
0010
0001
0100
1000
0000
,
0001
0010
1000
0000
0001
0100
1000
0000
,
0001
0100
1000
0100
0001
0100
1000
0000
,
0001
0010
1000
0000
0001
0010
1000
0000
,
0001
0100
1000
0100
0001
0000
0000
0010
,
0100
0010
0001
1000
0000
0001
0000
0100
,
0000
0010
1000
0010
1000
0001
1000
0100
,
0010
0001
0000
1001
;

//---------------dance-single - ----------------
#NOTEDATA:;
#CHARTNAME:;
#STEPSTYPE:dance-single;
#DESCRIPTION:;
#CHARTSTYLE:Pad;
#DIFFICULTY:Hard;
#METER:11;
#RADARVALUES:0.314777,0.369570,0.175398,0.241173,0.372721,163.000000,16.000000,22.000000,7.000000,0.000000,0.000000,0.000000,0.000000,0.314777,0.369570,0.175398,0.241173,0.372721,163.000000,16.000000,22.000000,7.000000,0.000000,0.000000,0.000000,0.000000;
#CREDIT:chewi;
#NOTES:
0000
0000
0000
0000
,
0000
0000
0000
0000
,
0000
0000
0000
0000
,
0000
0000
0000
0000
,
1000
0000
0000
0000
0000
0000
0001
0000
0000
0100
0100
0000
0010
0000
1000
0000
,
1001
1000
M000
0001
000M
1000
M000
0000
0011
0000
0000
0000
0000
0000
0010
0000
,
0000
0100
0100
0000
1000
0000
0010
0000
1010
1000
M000
0010
00M0
0100
0M00
0000
,
0110
0000
0000
0000
0000
0000
0100
0000
0000
0001
0001
0000
1000
0100
0010
0001
,
0020
0032
0023
0230
1300
M000
0000
0000
1001
0000
0000
0000
0000
0000
0010
0000
,
0000
0100
0100
0000
0010
0000
0000
0000
1010
0000
1100
0000
0011
0000
0101
0000
,
1000
0001
1000
0001
0010
0100
0010
0100
0020
0000
0031
0010
0200
0000
2300
0000
,
3020
0000
1030
0100
0020
0000
0032
0000
0003
1000
0010
0100
0001
1000
0100
0010
,
0002
0000
0013
0100
2000
0000
3002
0000
0103
0000
0010
1000
0200
0000
0320
0000
,
0031
0010
1000
0100
0002
0000
0203
0000
0300
0001
1000
0001
1000
0010
0100
0020
,
0000
0000
0030
0000
0100
0010
0100
0001
0000
1001
0000
0000
0100
0010
0100
1000
,
0000
1001
0000
0000
1000
0001
1000
0100
0000
0110
0000
0000
0001
1000
0001
0100
,
0000
0110
0000
0000
0010
1000
0100
0001
0000
0011
0000
0000
0000
0000
0010
0001
,
0010
0100
0010
1000
0100
0010
0001
1000
0002
0000
0000
0000
0003
0000
0000
0100
,
1000
0100
0010
0100
0001
1000
0010
0000
0200
0000
0000
0000
0300
0000
0001
0001
,
0001
0001
1000
0001
0100
0000
0110
0000
0000
0010
0001
0010
0100
0010
1000
0001
,
0100
0000
0020
0000
0000
0000
0030
0000
1000
1000
1000
1000
0001
1000
0010
0000
,
1000
0001
0020
0000
0030
0000
0000
0000
0000
0000
0000
0000
1001
0000
0000
0000
;
