#VERSION:0.83;
#TITLE:The Accelerator;
#SUBTITLE:;
#ARTIST:3x6;
#TITLETRANSLIT:;
#SUBTITLETRANSLIT:;
#ARTISTTRANSLIT:;
#GENRE:Dance/Electronic;
#ORIGIN:;
#CREDIT:chewi;
#BANNER:The Accelerator.png;
#BACKGROUND:The Accelerator-bg.png;
#PREVIEWVID:;
#JACKET:The Accelerator-jacket.png;
#CDIMAGE:;
#DISCIMAGE:;
#LYRICSPATH:;
#CDTITLE:cdtitle.png;
#MUSIC:The Accelerator.ogg;
#OFFSET:-0.031000;
#SAMPLESTART:46.672001;
#SAMPLELENGTH:15.000000;
#SELECTABLE:YES;
#BPMS:0.000=174.954;
#STOPS:0.000=2.401,
127.000=0.343;
#DELAYS:;
#WARPS:;
#TIMESIGNATURES:0.000=4=4;
#TICKCOUNTS:0.000=4;
#COMBOS:0.000=1;
#SPEEDS:0.000=1.000=0.000=0;
#SCROLLS:0.000=1.000;
#FAKES:;
#LABELS:0.000=Song Start;
#BGCHANGES:;
#KEYSOUNDS:;
#ATTACKS:
;

//---------------dance-single - ----------------
#NOTEDATA:;
#CHARTNAME:;
#STEPSTYPE:dance-single;
#DESCRIPTION:;
#CHARTSTYLE:;
#DIFFICULTY:Challenge;
#METER:17;
#RADARVALUES:1.155033,1.027555,0.513777,0.324491,1.243882,598.000000,560.000000,38.000000,24.000000,0.000000,0.000000,0.000000,0.000000,0.000000,1.155033,1.027555,0.513777,0.324491,1.243882,598.000000,560.000000,38.000000,24.000000,0.000000,0.000000,0.000000,0.000000,0.000000;
#CREDIT:chewi;
#NOTES:
0000
0000
0000
0000
1000
0010
0100
0001
1000
0010
0100
0001
1000
0010
0100
0001
,
1000
0010
0100
0000
0001
0010
0100
1000
0001
0010
0100
1000
0001
0010
0100
1000
,
0001
0010
0100
0000
1000
0001
0100
1000
0100
0001
0010
0100
1000
0010
0100
1000
,
0100
0001
0010
0000
0001
1000
0010
0001
0010
1000
0100
0010
0001
0100
0010
0001
,
0010
1000
0100
0000
0100
1000
0001
0010
0100
1000
0001
0010
0100
1000
0001
0010
,
0100
1000
0001
0000
0100
0010
1000
0001
0100
0010
1000
0001
0100
0010
1000
0001
,
0100
0010
1000
0000
0100
0010
0001
0100
0001
0010
1000
0001
0100
1000
0001
0100
,
0001
0100
0001
0000
0010
0100
1000
0010
1000
0100
0001
1000
0010
0001
1000
0010
,
1000
0010
1000
0000
0010
0100
0001
1000
0010
0100
0001
1000
0010
0100
0001
1000
,
0010
0100
0001
0000
0010
0100
1000
0001
0010
0100
1000
0001
0010
0100
1000
0001
,
0010
0100
1000
0000
0010
1000
0100
1000
0010
0100
0001
1000
0010
0001
1000
0100
,
0001
0010
0100
0000
0100
0010
0001
0100
0001
0010
1000
0001
0100
1000
0001
0100
,
0001
0010
1000
0000
0010
0100
1000
0001
0010
0100
1000
0001
0010
0100
1000
0001
,
0010
0100
1000
0000
1000
0100
0010
0001
1000
0100
0010
0001
1000
0100
0010
0001
,
1000
0100
0010
0000
0001
1000
0010
0001
0010
1000
0100
0010
0001
0100
0010
0001
,
0010
1000
0100
1000
1000
0001
0100
1000
0100
0001
0010
0100
1000
0010
0100
1000
,
0100
0001
0010
0000
0001
0010
1000
0001
0100
0000
1000
0010
0100
0000
0001
0100
,
0001
0000
0100
0010
1000
0000
0100
0010
0001
0000
0010
0100
1000
0000
0010
0100
,
0001
1000
0100
0010
0001
0000
0010
0001
0100
0000
0001
0100
0010
0000
0100
0001
,
0010
0000
0100
1000
0010
0000
1000
0010
1000
0000
0010
0100
0010
0000
1000
0010
,
1000
0001
0100
0010
1000
0000
0001
0100
0010
0000
1000
0010
1000
0000
0001
0100
,
0001
0000
1000
0010
1000
0000
0010
0100
0010
0000
1000
0010
1000
0001
0100
0001
,
0100
0000
0001
1000
0010
0000
1000
0010
0100
0000
0010
0100
0001
0000
0010
0100
,
1000
0000
0010
1000
0001
0000
0010
0001
1000
0000
0001
0100
0001
1000
0100
1000
,
0001
0000
0020
0130
0020
0031
0200
0310
,
2000
3001
1001
1000
1010
0010
0110
0100
,
0101
0001
0200
0310
0200
0301
0020
0130
,
2000
3001
0011
0010
0110
0100
1100
1000
,
1001
1000
2000
3001
2000
3010
2000
3100
,
2000
3001
0110
0100
0101
0001
1001
1000
,
1010
0010
0110
0100
0101
0001
0011
0010
,
0110
0100
1100
1000
1001
0001
1001
0000
,
0001
0000
1000
0001
0100
0000
0001
0100
0010
0000
0001
0010
1000
0000
0001
0100
,
1000
0000
1000
0100
0001
0000
1000
0100
0001
0000
0100
0010
0100
1000
0100
1000
,
0100
0000
1000
0010
0100
0000
1000
0100
0001
0000
1000
0010
0001
0000
0010
0100
,
0001
0000
0010
0100
1000
0000
0001
0010
0100
0000
1000
0010
0100
0001
1000
0100
,
0010
0000
0001
0010
0100
0000
0001
0100
0001
0000
0100
0010
0100
0000
0100
1000
,
0100
0000
0001
0100
0001
0000
0100
0010
1000
0001
0010
0001
0010
0000
0001
1000
,
0100
0000
1000
0001
0100
0000
0010
0100
0010
0000
0100
0010
0100
0000
0001
0100
,
0001
0000
1000
0100
1000
0000
0001
0100
0001
1000
0010
1000
0001
0000
0000
0000
,
0020
0130
0020
0130
0200
0310
0002
1003
,
1001
0001
0101
0100
0110
0010
1010
1000
,
0020
0130
0020
1030
0200
0310
0002
1003
,
1100
0100
0110
0010
0011
0001
1001
0001
,
0002
1003
0002
0103
0002
0013
0002
1003
,
0110
0010
1010
1000
1001
0001
0101
0100
,
0110
0010
1010
1000
1100
0100
0110
0010
,
0011
0001
1001
1000
1001
0000
0000
0000
;

//---------------dance-single - ----------------
#NOTEDATA:;
#CHARTNAME:;
#STEPSTYPE:dance-single;
#DESCRIPTION:;
#CHARTSTYLE:;
#DIFFICULTY:Hard;
#METER:13;
#RADARVALUES:0.762940,0.706444,0.378573,0.000000,0.229848,395.000000,367.000000,28.000000,0.000000,0.000000,0.000000,0.000000,0.000000,0.000000,0.762940,0.706444,0.378573,0.000000,0.229848,395.000000,367.000000,28.000000,0.000000,0.000000,0.000000,0.000000,0.000000,0.000000;
#CREDIT:;
#NOTES:
0000
0000
1000
0100
0010
0100
1000
0010
,
0100
0000
0001
0010
0100
0010
0001
0100
,
0010
0000
1000
0001
0100
1000
0001
0010
,
1000
0000
0001
1000
0100
0001
1000
0010
,
0001
0000
0100
0010
1000
0010
0100
0001
,
1000
0000
0100
0010
0001
0010
0100
1000
,
0001
0000
1000
0001
0010
1000
0001
0100
,
1000
0000
0001
1000
0010
0001
1000
0100
,
0001
0000
0001
0010
0100
0010
0001
0100
,
0010
0000
1000
0100
0010
0100
1000
0010
,
0100
0000
0001
1000
0010
0001
1000
0100
,
0001
0000
1000
0001
0010
1000
0001
0100
,
1000
0000
0010
0100
0001
0100
0010
1000
,
0001
0000
0010
0100
1000
0100
0010
0001
,
1000
0000
0001
1000
0100
0001
1000
0010
,
0001
0100
0010
1000
0001
0100
0010
0100
,
0010
0000
0000
0000
0100
0000
0001
0100
0001
0000
0100
0000
0010
0000
1000
0010
,
1000
0000
0001
0000
1000
0000
0001
1000
0001
0000
0100
0000
0010
0000
1000
0100
,
1000
0000
0010
0000
0100
0000
0001
0100
0001
0000
0010
0000
0100
0000
0010
0100
,
0010
0000
0100
0000
1000
0000
0100
1000
0100
0000
1000
0000
0010
0000
1000
0010
,
1000
0000
0010
0100
0010
0000
1000
0010
1000
0000
0010
0000
0100
0000
0001
0100
,
0001
0000
1000
0000
0001
0000
1000
0001
1000
0000
0010
0000
0100
0000
0001
0010
,
0001
0000
0100
0000
0010
0000
1000
0010
1000
0000
0100
0000
0010
0000
0100
0010
,
0100
0000
0010
0000
0001
0000
0010
0001
0010
0000
0001
0000
0100
0000
0001
0100
,
0001
0000
0101
0000
1100
0000
0010
0001
,
0100
0010
1001
0000
0110
0000
1000
0010
,
0001
0010
0011
0000
1010
0000
1000
0100
,
0001
0100
0101
0000
1100
0000
1000
0001
,
0100
0001
0101
0000
1100
0000
0010
1000
,
0100
1000
1001
0000
0110
0000
0001
0010
,
1000
0010
0011
0000
1010
0000
0001
0100
,
1000
0010
1000
0100
0001
0010
1000
0000
,
0010
0000
1000
0010
1000
0000
0010
0000
0100
0000
0001
0100
0001
0000
1000
0000
,
0001
0000
1000
0001
1000
0000
0010
0000
0100
0000
0001
0010
0001
0000
0100
0000
,
0010
0000
1000
0010
1000
0000
0100
0000
0010
0000
0100
0010
0100
0000
0010
0000
,
0001
0000
0010
0001
0010
0000
0001
0000
0100
0000
0001
0100
0001
0000
0100
0010
,
0100
0000
0001
0100
0001
0000
0100
0000
0010
0000
1000
0010
1000
0000
0001
0000
,
1000
0000
0001
1000
0001
0000
0100
0000
0010
0000
1000
0100
1000
0000
0010
0000
,
0100
0000
0001
0100
0001
0000
0010
0000
0100
0000
0010
0100
0010
0000
0100
0000
,
1000
0000
0100
1000
0100
0000
1000
0000
0010
0000
1000
0010
1000
0000
0000
0000
,
1010
0000
0011
0000
0100
1000
0010
0100
,
1001
0000
0110
0000
0001
0100
1000
0100
,
1100
0000
0101
0000
0001
0010
1000
0010
,
1010
0000
0011
0000
0001
1000
0010
1000
,
1010
0000
0011
0000
0100
0001
0010
0001
,
1001
0000
0110
0000
1000
0100
0001
0100
,
1100
0000
0101
0000
1000
0010
0001
0100
,
0001
0010
1000
0100
0001
0000
0000
0000
;

//---------------dance-single - ----------------
#NOTEDATA:;
#CHARTNAME:;
#STEPSTYPE:dance-single;
#DESCRIPTION:;
#CHARTSTYLE:;
#DIFFICULTY:Medium;
#METER:11;
#RADARVALUES:0.504120,0.513777,0.473216,0.000000,0.000000,261.000000,226.000000,35.000000,0.000000,0.000000,0.000000,0.000000,0.000000,0.000000,0.504120,0.513777,0.473216,0.000000,0.000000,261.000000,226.000000,35.000000,0.000000,0.000000,0.000000,0.000000,0.000000,0.000000;
#CREDIT:;
#NOTES:
0000
0000
1000
0000
0100
0000
0010
0100
,
1000
0000
0010
0000
0100
0000
0001
0100
,
0010
0000
1000
0000
0001
0000
0010
0100
,
1000
0000
0001
0010
0100
0000
1000
0010
,
0100
0000
0001
0000
0100
0000
0010
1000
,
0100
0000
0010
0000
0100
0000
1000
0010
,
0100
0000
0001
0000
0100
0000
0010
1000
,
0100
0000
0010
0001
0100
0000
0010
1000
,
0100
0000
1000
0000
0010
0000
0100
0010
,
1000
0000
0010
0000
0100
0000
0001
0010
,
0100
0000
1000
0000
0001
0000
0100
0010
,
1000
0000
1000
0100
0010
0000
0001
0100
,
0010
0000
1000
0000
0010
0000
0100
0001
,
0010
0000
0100
0000
0010
0000
0001
0100
,
0010
0000
1000
1000
0000
1010
0000
0101
,
0000
0011
0000
1100
0000
1001
0000
0110
,
0100
0000
0100
0001
0000
0010
0000
0100
,
0010
0001
0000
0100
0000
0010
0000
0100
,
0001
0010
0000
0100
0000
1000
0000
0010
,
1000
0100
0000
1000
0000
0010
0000
0100
,
0001
0100
0000
0001
0000
0100
0000
0010
,
0100
0001
0000
0010
0000
0100
0000
0010
,
0001
0100
0000
0010
0000
0100
0000
0010
,
1000
0100
0000
0010
0000
0001
0000
1000
,
0001
1000
0101
0000
1100
0000
0010
0000
,
0100
1001
0110
1000
,
0001
0011
1010
1000
,
0001
0101
1100
1000
,
0100
0101
1100
0010
,
0100
1001
0110
0001
,
1000
0011
1010
0001
,
1000
1000
0001
1000
,
0010
1000
0000
0100
0000
0010
0100
1000
,
0000
0010
0000
0100
0000
0010
1000
0100
,
0000
0010
0000
0001
0000
0100
0001
0010
,
0000
0001
0000
0100
0000
0010
1000
0010
,
0000
1000
0000
0010
0000
0100
0010
1000
,
0000
0100
0000
0010
0000
0100
1000
0010
,
0000
0100
0000
0010
0000
0100
0001
0010
,
0000
0100
0000
1000
0000
0001
1000
0001
,
1010
0011
0100
0010
,
1001
0110
0001
1000
,
1100
0101
0001
1000
,
1010
0011
0001
0010
,
1010
0011
0100
0010
,
1001
0110
1000
0001
,
1100
0101
1000
0001
,
0001
1000
1001
0000
;

//---------------dance-single - ----------------
#NOTEDATA:;
#CHARTNAME:;
#STEPSTYPE:dance-single;
#DESCRIPTION:;
#CHARTSTYLE:;
#DIFFICULTY:Easy;
#METER:6;
#RADARVALUES:0.382436,0.385333,0.108164,0.000000,0.000000,198.000000,190.000000,8.000000,0.000000,0.000000,0.000000,0.000000,0.000000,0.000000,0.382436,0.385333,0.108164,0.000000,0.000000,198.000000,190.000000,8.000000,0.000000,0.000000,0.000000,0.000000,0.000000,0.000000;
#CREDIT:;
#NOTES:
// measure 0
0000
1000
0100
1000
,  // measure 1
1100
0001
0100
0001
,  // measure 2
0101
0100
0010
0100
,  // measure 3
0110
0010
0100
0010
,  // measure 4
0110
0010
1000
0010
,  // measure 5
1010
1000
0001
1000
,  // measure 6
1001
0001
1000
0001
,  // measure 7
1001
0001
0010
0001
,  // measure 8
0011
0010
0100
1000
,  // measure 9
0001
0010
0100
1000
,  // measure 10
0001
0010
0100
1000
,  // measure 11
0010
0100
0001
0010
,  // measure 12
0100
1000
0010
0100
,  // measure 13
0001
1000
0010
0100
,  // measure 14
0001
1000
1000
1000
,  // measure 15
1000
0001
0001
0001
,  // measure 16
0001
1000
0001
0010
,  // measure 17
0010
0001
1000
0010
,  // measure 18
0010
1000
0001
0100
,  // measure 19
0100
0001
1000
0100
,  // measure 20
0100
1000
0001
0010
,  // measure 21
0010
0001
1000
0010
,  // measure 22
0010
1000
0001
0010
,  // measure 23
0010
0001
1000
0001
,  // measure 24
0001
1000
0010
0001
,  // measure 25
0010
1000
0010
0001
,  // measure 26
0010
1000
1000
0100
,  // measure 27
0100
0010
0010
0001
,  // measure 28
0001
0001
0100
1000
,  // measure 29
0100
0001
0100
1000
,  // measure 30
0100
0001
0010
0100
,  // measure 31
1000
0010
0100
0001
,  // measure 32
0001
1000
0100
0100
,  // measure 33
1000
0001
0100
0100
,  // measure 34
0001
1000
0010
0010
,  // measure 35
1000
0001
0010
0010
,  // measure 36
0001
1000
0100
0100
,  // measure 37
1000
0001
0100
0100
,  // measure 38
0001
1000
0100
0100
,  // measure 39
1000
0001
1000
1000
,  // measure 40
0001
0100
1000
0100
,  // measure 41
0001
0100
1000
0100
,  // measure 42
0001
0001
0010
0010
,  // measure 43
0100
0100
1000
1000
,  // measure 44
1000
0010
0001
0010
,  // measure 45
1000
0010
0001
0010
,  // measure 46
1000
0100
0010
0001
,  // measure 47
1000
0100
0010
0000
;

//---------------dance-single - ----------------
#NOTEDATA:;
#CHARTNAME:;
#STEPSTYPE:dance-single;
#DESCRIPTION:;
#CHARTSTYLE:;
#DIFFICULTY:Beginner;
#METER:4;
#RADARVALUES:0.185423,0.160555,0.000000,0.000000,0.000000,96.000000,96.000000,0.000000,0.000000,0.000000,0.000000,0.000000,0.000000,0.000000,0.185423,0.160555,0.000000,0.000000,0.000000,96.000000,96.000000,0.000000,0.000000,0.000000,0.000000,0.000000,0.000000,0.000000;
#CREDIT:;
#NOTES:
// measure 0
0000
1000
0000
1000
,  // measure 1
0000
0001
0000
0001
,  // measure 2
0000
0010
0000
0010
,  // measure 3
0000
0100
0000
0100
,  // measure 4
0000
1000
0000
1000
,  // measure 5
0000
0010
0000
0010
,  // measure 6
0000
0100
0000
0100
,  // measure 7
0000
0001
0000
0001
,  // measure 8
0000
1000
0000
1000
,  // measure 9
0000
0001
0000
0001
,  // measure 10
0000
0100
0000
0100
,  // measure 11
0000
0010
0000
0010
,  // measure 12
0000
1000
0000
0100
,  // measure 13
0000
1000
0000
0100
,  // measure 14
0000
1000
0000
1000
,  // measure 15
0000
0001
0000
0001
,  // measure 16
0000
1000
0000
0010
,  // measure 17
0000
0001
0000
0010
,  // measure 18
0000
1000
0000
0100
,  // measure 19
0000
0001
0000
0100
,  // measure 20
0000
1000
0000
0010
,  // measure 21
0000
0001
0000
0010
,  // measure 22
0000
1000
0000
0010
,  // measure 23
0000
0001
0000
0001
,  // measure 24
0000
1000
0000
0001
,  // measure 25
0000
1000
0000
0001
,  // measure 26
0000
1000
0000
0100
,  // measure 27
0000
0010
0000
0001
,  // measure 28
0000
0001
0000
1000
,  // measure 29
0000
0001
0000
1000
,  // measure 30
0000
0001
0000
0100
,  // measure 31
0000
0010
0000
1000
,  // measure 32
0001
0000
0100
0000
,  // measure 33
1000
0000
0100
0000
,  // measure 34
0001
0000
0010
0000
,  // measure 35
1000
0000
0010
0000
,  // measure 36
0001
0000
0100
0000
,  // measure 37
1000
0000
0100
0000
,  // measure 38
0001
0000
0100
0000
,  // measure 39
1000
0000
1000
0000
,  // measure 40
0001
0000
1000
0000
,  // measure 41
0001
0000
1000
0000
,  // measure 42
0001
0000
0010
0000
,  // measure 43
0100
0000
1000
0000
,  // measure 44
1000
0000
0001
0000
,  // measure 45
1000
0000
0001
0000
,  // measure 46
1000
0000
0010
0000
,  // measure 47
1000
0000
0010
0000
;
