#TITLE:That Don't Impress Me Much (12" Club Mix);
#SUBTITLE:;
#ARTIST:Jackie 'O';
#TITLETRANSLIT:;
#SUBTITLETRANSLIT:;
#ARTISTTRANSLIT:;
#GENRE:Dance;
#CREDIT:steps by chewi;
#BANNER:That Don't Impress Me Much (12'' Club Mix).png;
#BACKGROUND:That Don't Impress Me Much (12'' Club Mix)-bg.png;
#LYRICSPATH:;
#CDTITLE:cdtitle.png;
#MUSIC:That Don't Impress Me Much (12'' Club Mix).ogg;
#OFFSET:0.000000;
#SAMPLESTART:87.172997;
#SAMPLELENGTH:18.142000;
#SELECTABLE:YES;
#BPMS:0.000000=132.000000
;
#STOPS:
;
#BGCHANGES:;
#KEYSOUNDS:;
#ATTACKS:;

//---------------dance-single - ----------------
#NOTES:
     dance-single:
     :
     Beginner:
     2:
     0.082855,0.135064,0.039725,0.000000,0.000000,68.000000,5.000000,0.000000,0.000000,0.000000,0.000000,0.082855,0.135064,0.039725,0.000000,0.000000,68.000000,5.000000,0.000000,0.000000,0.000000,0.000000:
// measure 0
0000
0000
0000
0000
,  // measure 1
0000
0000
0000
0000
,  // measure 2
0000
0000
0000
0000
,  // measure 3
0000
0000
0000
0000
,  // measure 4
1000
0000
0000
0000
,  // measure 5
1000
0000
0000
0000
,  // measure 6
1000
0000
0000
0000
,  // measure 7
1000
0000
0000
0000
,  // measure 8
0001
0000
0000
0000
,  // measure 9
0001
0000
0000
0000
,  // measure 10
0001
0000
0000
0000
,  // measure 11
0001
0000
0000
0000
,  // measure 12
0010
0000
0000
0000
,  // measure 13
0010
0000
0000
0000
,  // measure 14
0010
0000
0000
0000
,  // measure 15
0010
0000
0000
0000
,  // measure 16
0100
0000
0000
0000
,  // measure 17
0100
0000
0000
0000
,  // measure 18
0100
0000
0000
0000
,  // measure 19
0100
0000
0000
0000
,  // measure 20
1000
0000
0000
0000
,  // measure 21
1000
0000
0000
0000
,  // measure 22
0001
0000
0000
0000
,  // measure 23
0001
0000
0000
0000
,  // measure 24
0010
0000
0000
0000
,  // measure 25
0010
0000
0000
0000
,  // measure 26
0110
0000
0000
0000
,  // measure 27
0100
0000
0000
0000
,  // measure 28
1000
0000
0000
0000
,  // measure 29
0001
0000
0000
0000
,  // measure 30
1000
0000
0000
0000
,  // measure 31
0100
0000
0000
0000
,  // measure 32
0010
0000
0000
0000
,  // measure 33
0001
0000
0000
0000
,  // measure 34
1000
0000
1000
0000
,  // measure 35
1000
0000
0000
0000
,  // measure 36
1001
0000
0000
0000
,  // measure 37
0001
0000
0000
0000
,  // measure 38
0100
0000
0000
0000
,  // measure 39
0010
0000
0000
0000
,  // measure 40
1000
0000
0000
0000
,  // measure 41
0001
0000
0000
0000
,  // measure 42
1000
0000
0000
0000
,  // measure 43
0001
0000
0000
0000
,  // measure 44
0100
0000
0000
0000
,  // measure 45
0100
0000
0000
0000
,  // measure 46
0010
0000
0000
0000
,  // measure 47
0010
0000
0000
0000
,  // measure 48
0110
0000
0000
0000
,  // measure 49
0100
0000
0100
0000
,  // measure 50
0100
0000
0000
0000
,  // measure 51
0010
0000
0010
0000
,  // measure 52
0010
0000
0000
0000
,  // measure 53
1000
0000
0000
0000
,  // measure 54
1001
0000
0000
0000
,  // measure 55
1000
0000
0000
0000
,  // measure 56
0001
0000
0000
0000
,  // measure 57
0010
0000
0000
0000
,  // measure 58
0100
0000
0000
0000
,  // measure 59
0010
0000
0000
0000
,  // measure 60
0100
0000
0000
0000
,  // measure 61
1000
0000
0000
0000
,  // measure 62
0001
0000
0000
0000
,  // measure 63
0001
0000
0000
0000
,  // measure 64
1001
0000
0000
0000
,  // measure 65
1000
0000
0000
0000
,  // measure 66
0010
0000
0000
0000
,  // measure 67
0001
0000
0000
0000
,  // measure 68
0100
0000
0000
0000
;

//---------------dance-single - ----------------
#NOTES:
     dance-single:
     :
     Easy:
     4:
     0.186139,0.217692,0.063560,0.127119,0.000000,140.000000,8.000000,16.000000,0.000000,0.000000,0.000000,0.186139,0.217692,0.063560,0.127119,0.000000,140.000000,8.000000,16.000000,0.000000,0.000000,0.000000:
// measure 0
0000
0000
0000
0000
,  // measure 1
0000
0000
0000
0000
,  // measure 2
0000
0000
0000
0000
,  // measure 3
0000
0000
0000
0000
,  // measure 4
2000
0000
0000
3000
,  // measure 5
0002
0000
0000
0003
,  // measure 6
2000
0000
0000
3000
,  // measure 7
0002
0000
0000
0003
,  // measure 8
0200
0000
0000
0300
,  // measure 9
0100
0100
0100
0000
,  // measure 10
0020
0000
0000
0030
,  // measure 11
0010
0010
0010
0000
,  // measure 12
2000
3000
1000
0000
,  // measure 13
1000
0100
1000
0000
,  // measure 14
0002
0003
0001
0000
,  // measure 15
0001
0100
0001
0000
,  // measure 16
0200
0300
0100
0000
,  // measure 17
0100
0010
1000
0000
,  // measure 18
0020
0030
0010
0000
,  // measure 19
0010
0100
0001
0000
,  // measure 20
1000
1000
1000
0000
,  // measure 21
0001
1000
0100
0000
,  // measure 22
0010
0010
0010
0000
,  // measure 23
0100
0010
0001
0000
,  // measure 24
1001
0000
0000
0000
,  // measure 25
0000
0000
0000
0000
,  // measure 26
0110
0000
0100
0000
,  // measure 27
0100
0010
1000
0000
,  // measure 28
0100
0000
0010
0000
,  // measure 29
0001
0010
0001
0000
,  // measure 30
1000
0000
0001
0000
,  // measure 31
0100
0100
0100
0000
,  // measure 32
0010
0000
1000
0000
,  // measure 33
0001
1000
0001
0000
,  // measure 34
2000
0000
0000
3000
,  // measure 35
0001
0001
0001
0000
,  // measure 36
1001
0000
0010
0000
,  // measure 37
1000
0000
0100
0000
,  // measure 38
0001
0000
0010
0000
,  // measure 39
1000
0000
0010
0000
,  // measure 40
0001
0001
0001
0001
,  // measure 41
0002
0000
0000
0003
,  // measure 42
1000
1000
1000
1000
,  // measure 43
2000
0000
0000
3000
,  // measure 44
1001
0000
1000
0000
,  // measure 45
1000
0001
1000
0000
,  // measure 46
0001
0000
0001
0000
,  // measure 47
0000
0000
0000
0000
,  // measure 48
1000
1000
1000
0000
,  // measure 49
0001
1000
0100
0000
,  // measure 50
0010
0010
0010
0000
,  // measure 51
0100
0010
0001
0000
,  // measure 52
1001
0000
0000
0000
,  // measure 53
0000
0000
0000
0000
,  // measure 54
0110
0000
0100
0000
,  // measure 55
0100
0010
1000
0000
,  // measure 56
0100
0000
0010
0000
,  // measure 57
0001
0010
0001
0000
,  // measure 58
1000
0000
0001
0000
,  // measure 59
0100
0100
0100
0000
,  // measure 60
0010
0000
1000
0000
,  // measure 61
0001
1000
0001
0000
,  // measure 62
2000
0000
0000
3000
,  // measure 63
0001
0001
0001
0000
,  // measure 64
1001
0000
0010
0000
,  // measure 65
1000
0000
0100
0000
,  // measure 66
0001
0000
0010
0000
,  // measure 67
1000
0000
0010
0000
,  // measure 68
2002
0000
3003
0000
;

//---------------dance-single - ----------------
#NOTES:
     dance-single:
     :
     Medium:
     7:
     0.244024,0.272115,0.087395,0.015890,0.000000,202.000000,11.000000,2.000000,0.000000,0.000000,0.000000,0.244024,0.272115,0.087395,0.015890,0.000000,202.000000,11.000000,2.000000,0.000000,0.000000,0.000000:
// measure 0
0000
0000
0000
0000
,  // measure 1
0000
0000
0000
0000
,  // measure 2
0000
0000
0000
0000
,  // measure 3
0000
0000
0000
0000
,  // measure 4
1000
0100
0010
0000
,  // measure 5
0100
0010
0001
0000
,  // measure 6
0001
0100
0010
0000
,  // measure 7
0100
0010
1000
0000
,  // measure 8
1000
0001
1000
0000
,  // measure 9
1001
0010
0100
0000
,  // measure 10
0010
0100
0010
0000
,  // measure 11
0110
1000
0001
0000
,  // measure 12
1000
0010
0001
0000
,  // measure 13
1000
0010
0001
0000
,  // measure 14
1000
0010
0001
0100
,  // measure 15
1000
0010
0001
0100
,  // measure 16
1000
0100
0001
0000
,  // measure 17
1000
0100
0001
0000
,  // measure 18
1000
0100
0001
0010
,  // measure 19
1000
0100
0001
0010
,  // measure 20
1000
0000
0001
0000
,  // measure 21
1000
0001
0010
0000
,  // measure 22
0010
0000
0100
0000
,  // measure 23
0010
0100
1000
0000
,  // measure 24
1001
1000
0100
0000
,  // measure 25
0001
0001
0100
0000
,  // measure 26
1000
0001
1000
0000
,  // measure 27
0001
1000
0001
0000
1000
0000
0000
0000
,  // measure 28
0100
0010
0100
0000
,  // measure 29
0010
0100
0010
0000
0100
0000
0000
0000
,  // measure 30
0100
0010
0001
0000
,  // measure 31
0001
1000
0100
0000
1000
0000
0000
0000
,  // measure 32
0100
1000
0010
0000
,  // measure 33
1000
0001
0100
0000
0001
0000
0000
0000
,  // measure 34
1001
0000
0010
0000
,  // measure 35
0100
0000
0000
0000
,  // measure 36
0010
0100
1000
0000
,  // measure 37
0100
0010
0001
0000
,  // measure 38
1000
0001
0100
0000
,  // measure 39
0001
1000
0100
0000
,  // measure 40
0010
0010
0010
0010
,  // measure 41
1000
1000
1000
1000
,  // measure 42
0100
0100
0100
0100
,  // measure 43
0001
0001
0001
0001
,  // measure 44
0010
0100
0010
0000
,  // measure 45
0100
0010
0100
0000
0100
0000
0000
0000
,  // measure 46
1000
0001
1000
0000
,  // measure 47
1001
0000
0000
0000
,  // measure 48
0110
0010
0010
0000
,  // measure 49
0100
0010
0100
0000
1000
0000
0000
0000
,  // measure 50
1001
1000
0001
0000
,  // measure 51
0100
0001
0100
0000
0100
0000
0000
0000
,  // measure 52
1001
1000
0010
0000
,  // measure 53
0001
0001
0010
0000
,  // measure 54
0001
1000
0001
0000
,  // measure 55
1000
0001
1000
0000
0001
0000
0000
0000
,  // measure 56
0010
0100
0010
0000
,  // measure 57
0100
0010
0100
0000
0010
0000
0000
0000
,  // measure 58
0010
0100
1000
0000
,  // measure 59
1000
0001
0010
0000
0001
0000
0000
0000
,  // measure 60
0010
0001
0100
0000
,  // measure 61
0001
1000
0010
0000
1000
0000
0000
0000
,  // measure 62
1001
0000
0100
0000
,  // measure 63
0010
0000
0000
0000
,  // measure 64
0100
0010
1000
0000
,  // measure 65
0100
0010
1001
0000
,  // measure 66
0001
1000
0010
0000
,  // measure 67
1000
0001
0010
0000
,  // measure 68
2002
0000
3003
0000
;

//---------------dance-single - ----------------
#NOTES:
     dance-single:
     :
     Hard:
     11:
     0.446053,0.544230,0.238349,0.206569,0.051642,337.000000,30.000000,26.000000,0.000000,0.000000,0.000000,0.446053,0.544230,0.238349,0.206569,0.051642,337.000000,30.000000,26.000000,0.000000,0.000000,0.000000:
// measure 0
0000
0000
0000
0000
,  // measure 1
0000
0000
0000
0000
,  // measure 2
0000
0000
0000
0000
,  // measure 3
0000
0000
0000
0000
,  // measure 4
2000
0000
3100
0000
0010
0100
1000
0000
,  // measure 5
0002
0000
0103
0000
0010
0100
0001
0000
,  // measure 6
0001
0000
0000
1000
0001
0000
0000
0001
,  // measure 7
1000
0000
0000
0100
0000
0000
0010
0000
0100
0000
0000
0000
0110
0000
0000
0000
,  // measure 8
0010
0000
0010
0000
0100
0010
0001
0000
,  // measure 9
0100
0000
0100
0000
0010
1000
0001
0000
,  // measure 10
1000
0000
1000
0000
0001
0010
0100
0000
,  // measure 11
1000
0000
1000
0000
0010
0100
0001
0000
,  // measure 12
0101
0100
0100
0100
,  // measure 13
0010
1000
0100
0000
0010
0100
1000
0000
,  // measure 14
1100
0100
0100
0100
,  // measure 15
0100
0010
0001
0000
0100
0010
1000
0000
,  // measure 16
1001
1000
0001
1000
,  // measure 17
0001
0010
0100
1000
0100
0000
1100
0000
,  // measure 18
1001
1000
0001
1000
,  // measure 19
0001
0100
0010
1000
0010
0000
1010
0000
,  // measure 20
2002
3003
2002
3003
,  // measure 21
1000
0100
0010
0100
1000
0000
0100
0000
,  // measure 22
2002
3003
2002
3003
,  // measure 23
0001
0100
0010
0100
0001
0000
0100
0100
,  // measure 24
0100
0100
0010
0010
,  // measure 25
1000
0001
1000
0000
,  // measure 26
0001
0010
0001
0000
1000
0000
0100
0000
0010
0000
0001
0000
0100
0000
0010
0000
,  // measure 27
1000
0010
1000
0000
0001
0000
0100
0000
0010
0000
1000
0000
1010
0000
0000
0000
,  // measure 28
0001
0100
0001
0000
0010
0000
0100
0000
1000
0000
0001
0000
0100
0000
0010
0000
,  // measure 29
2000
0001
0001
0010
3001
0000
1001
0000
,  // measure 30
0100
0010
0100
0000
1000
0000
0001
0000
0010
0000
0100
0000
1000
0000
0001
0000
,  // measure 31
0100
0010
0100
0000
0001
0000
1000
0000
0010
0000
0100
0000
0110
0000
0000
0000
,  // measure 32
0001
1000
0001
0000
0010
0000
0001
0000
0100
0000
0010
0000
1000
0000
0100
0000
,  // measure 33
0020
0001
0001
0100
0031
0000
1001
0000
,  // measure 34
1000
0000
0000
0001
1000
0000
0000
1000
,  // measure 35
0001
1000
0100
0010
,  // measure 36
0100
0000
0010
0000
0001
1000
0100
0000
,  // measure 37
0100
1001
0010
1001
,  // measure 38
1000
0000
0001
0000
1000
0100
0010
0000
,  // measure 39
0001
0110
1000
0110
,  // measure 40
0001
0100
0010
1000
,  // measure 41
0001
0010
0100
1000
,  // measure 42
0001
0100
1000
0100
,  // measure 43
0001
0010
1000
0010
,  // measure 44
1010
0010
0100
0010
,  // measure 45
0100
0001
0010
0000
0100
0010
0001
0000
,  // measure 46
0011
0010
0100
0010
,  // measure 47
0000
0000
0000
0000
,  // measure 48
0220
0330
0220
0330
,  // measure 49
0010
0100
1000
0100
0010
0000
0100
0000
,  // measure 50
0220
0330
0220
0330
,  // measure 51
0010
0100
0001
0100
0010
0000
0100
0100
,  // measure 52
0100
0100
0010
0010
,  // measure 53
0001
1000
0001
0000
,  // measure 54
1000
0100
1000
0000
0001
0000
0010
0000
0100
0000
1000
0000
0010
0000
0100
0000
,  // measure 55
0001
0100
0001
0000
1000
0000
0010
0000
0100
0000
0001
0000
0101
0000
0000
0000
,  // measure 56
1000
0010
1000
0000
0100
0000
0010
0000
0001
0000
1000
0000
0010
0000
0100
0000
,  // measure 57
0002
1000
1000
0100
1003
0000
1001
0000
,  // measure 58
0010
0100
0010
0000
0001
0000
1000
0000
0100
0000
0010
0000
0001
0000
1000
0000
,  // measure 59
0010
0100
0010
0000
1000
0000
0001
0000
0100
0000
0010
0000
0110
0000
0000
0000
,  // measure 60
1000
0001
1000
0000
0100
0000
1000
0000
0010
0000
0100
0000
0001
0000
0010
0000
,  // measure 61
0200
1000
1000
0010
1300
0000
1001
0000
,  // measure 62
2000
0010
0001
0010
,  // measure 63
0002
0000
3003
0000
,  // measure 64
0001
0000
0001
0000
1000
0001
0100
0000
,  // measure 65
1000
0000
1000
0000
0001
0010
0100
0000
,  // measure 66
0010
0000
0010
0000
0100
1000
0001
0000
,  // measure 67
0010
0000
0010
0000
0001
1000
0100
0000
,  // measure 68
2002
0000
0000
3000
0003
0000
0000
0000
;
