#VERSION:0.81;
#TITLE:Tennis Court;
#SUBTITLE:;
#ARTIST:Lorde;
#TITLETRANSLIT:;
#SUBTITLETRANSLIT:;
#ARTISTTRANSLIT:;
#GENRE:;
#ORIGIN:;
#CREDIT:;
#BANNER:Tennis Court.png;
#BACKGROUND:Tennis Court-bg.png;
#PREVIEWVID:;
#JACKET:Tennis Court-jacket.png;
#CDIMAGE:;
#DISCIMAGE:;
#LYRICSPATH:;
#CDTITLE:;
#MUSIC:Tennis Court.mp3;
#OFFSET:-0.121834;
#SAMPLESTART:42.808998;
#SAMPLELENGTH:15.000000;
#SELECTABLE:YES;
#BPMS:0.000=90.000;
#STOPS:;
#DELAYS:;
#WARPS:;
#TIMESIGNATURES:0.000=4=4;
#TICKCOUNTS:0.000=4;
#COMBOS:0.000=1;
#SPEEDS:0.000=1.000=0.000=0;
#SCROLLS:0.000=1.000;
#FAKES:;
#LABELS:0.000=Song Start;
#BGCHANGES:-0.244=Tennis Court.avi=1.000=0=0=1=====,
99999=-nosongbg-=1.000=0=0=0 // don't automatically add -songbackground-
;
#KEYSOUNDS:;
#ATTACKS:
;

//---------------dance-single - ----------------
#NOTEDATA:;
#CHARTNAME:;
#STEPSTYPE:dance-single;
#DESCRIPTION:;
#CHARTSTYLE:;
#DIFFICULTY:Beginner;
#METER:1;
#RADARVALUES:0.085812,0.091691,0.046206,0.046206,0.000000,44.000000,4.000000,4.000000,0.000000,0.000000,0.000000,0.000000,0.000000,0.085812,0.091691,0.046206,0.046206,0.000000,44.000000,4.000000,4.000000,0.000000,0.000000,0.000000,0.000000,0.000000;
#CREDIT:;
#NOTES:
// measure 0
0000
0000
0000
0000
,  // measure 1
0000
0000
0000
0000
,  // measure 2
0000
0000
0000
0000
,  // measure 3
0000
0000
0000
0000
,  // measure 4
0000
1000
0000
1000
,  // measure 5
0000
1000
0000
1000
,  // measure 6
0000
0001
0000
0001
,  // measure 7
0000
0001
0000
0001
,  // measure 8
0000
0010
0000
0010
,  // measure 9
0000
0100
0000
0100
,  // measure 10
0000
0010
0000
0010
,  // measure 11
0000
1000
0000
1000
,  // measure 12
0000
0001
0000
0001
,  // measure 13
0000
0100
0000
0100
,  // measure 14
0000
0010
0000
0010
,  // measure 15
0000
0010
0000
0000
,  // measure 16
2000
0000
0000
3000
,  // measure 17
1000
0000
0000
0000
,  // measure 18
0002
0000
0000
0003
,  // measure 19
0001
0000
0000
0000
,  // measure 20
0200
0000
0000
0300
,  // measure 21
0100
0000
0000
0000
,  // measure 22
0020
0000
0000
0030
,  // measure 23
0010
0000
0000
0000
,  // measure 24
0110
0000
0000
0000
,  // measure 25
0110
0000
0000
0000
,  // measure 26
1001
0000
0000
0000
,  // measure 27
1001
0000
0000
0000
,  // measure 28
1000
0000
0100
0000
,  // measure 29
1000
0000
1000
0000
,  // measure 30
0001
0000
0100
0000
,  // measure 31
0001
0000
0001
0001
;

//---------------dance-single - ----------------
#NOTEDATA:;
#CHARTNAME:;
#STEPSTYPE:dance-single;
#DESCRIPTION:;
#CHARTSTYLE:;
#DIFFICULTY:Easy;
#METER:3;
#RADARVALUES:0.132018,0.147861,0.011552,0.057758,0.000000,74.000000,1.000000,5.000000,0.000000,0.000000,0.000000,0.000000,0.000000,0.132018,0.147861,0.011552,0.057758,0.000000,74.000000,1.000000,5.000000,0.000000,0.000000,0.000000,0.000000,0.000000;
#CREDIT:;
#NOTES:
0000
0000
0000
0000
,
0000
0000
0000
0000
,
0000
1000
0000
0001
,
0000
1000
0000
0001
,
0000
0100
0000
0010
,
0000
0100
0000
0010
,
0000
1000
0000
0010
,
0000
0001
0000
0100
,
0000
1000
0000
0100
,
0000
0010
0000
0001
,
0000
1000
0000
0010
,
0000
0100
0000
0001
,
0000
1000
0000
0100
,
0000
0010
0000
0100
,
0000
1000
0000
0001
,
0000
1000
0001
1001
,
2000
0000
0010
0000
,
3002
0000
0010
0000
,
1003
1000
1000
1000
,
0001
0001
0001
0001
,
2000
0000
0100
0000
,
3002
0000
0100
0000
,
1003
1000
1000
1000
,
0001
0001
0001
0001
,
0010
0000
0010
0000
,
0010
0100
1000
0000
,
0100
0000
0100
0000
,
0100
0010
0001
0000
,
0001
0000
0001
0000
,
1000
0010
0100
0000
,
1000
0000
1000
0000
,
0001
0010
0100
2000
,
3000
0000
0000
0000
;

//---------------dance-single - ----------------
#NOTEDATA:;
#CHARTNAME:;
#STEPSTYPE:dance-single;
#DESCRIPTION:;
#CHARTSTYLE:;
#DIFFICULTY:Medium;
#METER:5;
#RADARVALUES:0.224431,0.258756,0.046206,0.173274,0.000000,117.000000,4.000000,15.000000,0.000000,0.000000,0.000000,0.000000,0.000000,0.224431,0.258756,0.046206,0.173274,0.000000,117.000000,4.000000,15.000000,0.000000,0.000000,0.000000,0.000000,0.000000;
#CREDIT:;
#NOTES:
0000
0000
0000
0000
,
0000
0000
0000
0000
,
0000
1000
0000
0010
,
0000
0001
0000
0100
,
0000
1000
0000
0100
,
0000
0001
0000
0010
,
0000
1000
0000
0010
,
0000
0000
0100
0000
0100
0001
0100
0000
,
0001
1001
1000
0000
,
1000
1001
0001
0000
,
0100
0100
0100
0000
0100
0000
0000
0000
,
0010
0010
0010
0000
0010
0000
0000
0000
,
0010
0110
0100
0000
,
0100
0110
0010
0000
,
1000
1000
1000
0000
1000
0000
0000
0000
,
0001
0001
0001
0000
0001
0000
0000
0000
,
0002
0000
0023
0000
0031
0100
0001
0000
,
2000
0000
3200
0000
1300
0010
1000
0000
,
0010
0100
0001
1000
,
0100
0000
0010
0000
0001
0001
0001
0000
,
0002
0000
0023
0000
0031
0010
0100
0000
,
0020
0000
0230
0000
0310
0100
0010
0000
,
0100
1000
0010
1000
,
0100
0010
0001
0000
1000
0001
0100
0000
,
2000
0000
3001
0000
0001
1000
0001
0000
,
0002
0000
1003
0000
1000
0001
1000
0000
,
0001
0100
0010
0001
,
0100
1000
0010
0100
,
2000
0000
3020
0000
1030
0010
1000
0000
,
0002
0000
0203
0000
0301
0100
0001
0000
,
1000
0100
0010
1000
,
0100
0001
0010
0020
,
0030
0000
0000
0000
;

//---------------dance-single - ----------------
#NOTEDATA:;
#CHARTNAME:;
#STEPSTYPE:dance-single;
#DESCRIPTION:;
#CHARTSTYLE:;
#DIFFICULTY:Hard;
#METER:8;
#RADARVALUES:0.295391,0.295721,0.000000,0.265687,0.000000,156.000000,0.000000,23.000000,0.000000,0.000000,0.000000,0.000000,0.000000,0.295391,0.295721,0.000000,0.265687,0.000000,156.000000,0.000000,23.000000,0.000000,0.000000,0.000000,0.000000,0.000000;
#CREDIT:;
#NOTES:
0000
0000
0000
0000
,
0000
0000
0000
0000
,
0000
2000
0000
3200
,
0000
0000
0320
0000
0001
0001
0031
0000
,
0000
0002
0000
0023
,
0000
0230
0000
2300
,
0000
3200
0000
0320
,
0000
0000
0230
0000
1000
1000
1300
0000
,
1000
0000
0010
0000
0100
0001
0010
0000
,
0001
0000
0010
0000
0100
1000
0010
0000
,
1000
0000
0010
0000
0100
0001
0100
0000
,
0001
0000
0010
0000
0100
1000
0100
1000
,
0001
0000
1000
0000
0010
0100
0010
0000
,
0100
0000
0010
0000
1000
0001
1000
0000
,
0001
0000
0010
0000
0100
0010
0001
0000
,
0100
0000
0010
0000
1000
0010
0100
0001
,
2000
0000
3002
0000
1003
0100
0010
0001
,
2000
0000
3002
0000
1003
0010
0100
0001
,
0100
0001
0100
0000
0001
0010
0001
0000
,
0010
1000
0010
0000
1000
0100
1000
0000
,
0200
0000
0302
0000
0103
0001
0100
0000
,
0200
0000
0320
0000
0130
0010
0100
0000
,
0010
0001
0100
0000
0100
0001
0010
0000
,
0010
0100
1000
0000
1000
0100
0010
0001
,
2000
0100
3002
0100
0103
0000
0100
0000
,
0002
0100
2003
0100
3100
0000
0100
0000
,
1000
0010
1000
0000
0001
0100
0001
0000
,
1000
0100
0010
0001
1000
0100
1000
0000
,
0001
0010
0001
0000
1000
0010
1000
0000
,
0001
0100
0001
0000
1000
0100
1000
0000
,
0001
0010
0100
1000
0001
0010
0001
0000
,
1000
0010
0100
0001
0100
0001
0200
0000
,
0300
0000
0000
0000
;
