#TITLE:Tango;
#SUBTITLE:;
#ARTIST:Lady Sovereign;
#TITLETRANSLIT:;
#SUBTITLETRANSLIT:;
#ARTISTTRANSLIT:;
#GENRE:;
#CREDIT:Chewi☆;
#MENUCOLOR:#FFFFFF;
#METERTYPE:DDR X;
#BANNER:Tango.png;
#BACKGROUND:Tango-bg.png;
#LYRICSPATH:;
#CDTITLE:./CDTITLES/DanceDanceRevolution skyMIX3 -breeze-.png;
#MUSIC:Tango.mp3;
#OFFSET:-0.174;
#SAMPLESTART:36.816;
#SAMPLELENGTH:15.000;
#SELECTABLE:YES;
#LISTSORT:;
#DISPLAYBPM:131.000;
#BPMS:0.000=131.000;
#STOPS:;
#BGCHANGES:;
#ATTACKS:;

//---------------dance-single - Chewi----------------
#NOTES:
     dance-single:
     Chewi:
     Beginner:
     1:
     0.068,0.102,0.012,0.000,0.000:
0000
0000
0000
0000
,
0000
0000
0000
0000
,
0000
0000
0000
0000
,
0000
0000
0000
0000
,
1000
0000
0000
0000
,
1000
0000
0000
0000
,
0001
0000
0000
0000
,
0001
0000
0000
0000
,
0100
0000
0000
0000
,
0001
0000
0000
0000
,
0010
0000
0000
0000
,
1001
0000
0000
0000
,
1000
0000
0000
0000
,
0010
0000
0000
0000
,
0001
0000
0000
0000
,
0100
0000
0000
0000
,
0010
0000
0000
0000
,
0100
0000
0000
0000
,
0100
0000
0000
0000
,
0000
0000
0000
0000
,
0100
0000
0000
0000
,
0010
0000
0000
0000
,
0001
0000
0000
0000
,
1000
0000
0000
0000
,
1000
0000
0000
0000
,
0010
0000
0000
0000
,
0100
0000
0000
0000
,
0100
0000
0000
0000
,
0001
0000
0000
0000
,
0010
0000
0000
0000
,
0100
0000
0000
0000
,
0010
0000
0000
0000
,
1000
0000
0000
0000
,
1000
0000
0000
0000
,
0010
0000
0000
0000
,
0100
0000
0000
0000
,
0100
0000
0000
0000
,
0001
0000
0000
0000
,
0100
0000
0000
0000
,
1000
0000
0000
0000
,
0010
0000
0000
0000
,
0001
0000
0000
0000
,
0001
0000
0000
0000
,
0100
0000
0000
0000
,
1000
0000
0000
0000
;

//---------------dance-single - Chewi----------------
#NOTES:
     dance-single:
     Chewi:
     Easy:
     4:
     0.203,0.283,0.035,0.256,0.000: // measure 1
0000
0000
0000
0000
,  // measure 2
0000
0000
0000
0000
,  // measure 3
0000
0000
0000
0000
,  // measure 4
0000
0000
0000
0000
,  // measure 5
2000
0000
0000
3000
,  // measure 6
1000
0000
0000
0000
,  // measure 7
0002
0000
0000
0003
,  // measure 8
0001
0000
0000
0000
,  // measure 9
0100
0010
0100
0000
,  // measure 10
0001
0100
1000
0000
,  // measure 11
0010
0100
0010
0000
,  // measure 12
2002
0000
0000
3003
,  // measure 13
1000
0100
1000
0000
,  // measure 14
0010
0010
0010
0000
,  // measure 15
0001
0010
0001
0000
,  // measure 16
0100
0100
0100
0000
,  // measure 17
0010
0100
0010
0000
,  // measure 18
0100
0001
0010
0000
,  // measure 19
0100
0010
0100
0000
,  // measure 20
0000
0000
0000
0000
,  // measure 21
0100
0100
0100
0000
,  // measure 22
0010
0010
0010
0000
,  // measure 23
0001
0001
0001
0000
,  // measure 24
1000
0100
1000
0000
,  // measure 25
1000
1000
1000
0000
,  // measure 26
0010
0010
0010
0000
,  // measure 27
0100
0100
0100
0000
,  // measure 28
0100
0001
0100
0000
,  // measure 29
0001
0000
1001
0000
,  // measure 30
0010
0010
0100
0100
,  // measure 31
0200
0000
0300
0000
,  // measure 32
0020
0000
0030
0000
,  // measure 33
1000
0000
1001
0000
,  // measure 34
1000
1000
0001
0001
,  // measure 35
0020
0000
0030
0000
,  // measure 36
0200
0000
0300
0000
,  // measure 37
0100
0010
0100
0010
,  // measure 38
0002
2003
3002
0003
,  // measure 39
0100
0100
0010
0010
,  // measure 40
2000
3000
0020
2030
,  // measure 41
3020
0000
0230
0000
,  // measure 42
0302
0000
2003
0000
,  // measure 43
3002
0000
0023
0000
,  // measure 44
0230
0000
2300
0000
,  // measure 45
0000
3000
0000
0000
;

//---------------dance-single - Chewi----------------
#NOTES:
     dance-single:
     Chewi:
     Medium:
     7:
     0.291,0.309,0.291,0.081,0.017: // measure 1
0000
0000
0000
0000
,  // measure 2
0000
0000
0000
0000
,  // measure 3
0000
0000
0000
0000
,  // measure 4
0000
0000
0000
0000
,  // measure 5
0010
0000
0000
0010
0000
0000
0010
0000
0000
0000
0000
0000
0000
0000
0000
0000
,  // measure 6
0100
0000
0000
0100
0000
0000
0100
0000
0000
0000
0000
0000
0000
0000
0000
0000
,  // measure 7
1000
0000
0000
1000
0000
0000
1000
0000
0000
0000
0000
0000
0000
0000
0000
0000
,  // measure 8
0001
1001
0001
0000
,  // measure 9
1000
0100
0010
0000
,  // measure 10
0001
0100
1000
0000
,  // measure 11
0001
0100
0010
0000
,  // measure 12
1000
0010
0001
0000
,  // measure 13
1001
0001
1001
0000
,  // measure 14
0100
0010
1000
0100
,  // measure 15
0110
0010
0110
0000
,  // measure 16
0100
0001
0010
0001
,  // measure 17
0101
0001
0101
0000
,  // measure 18
0100
1000
0010
1000
,  // measure 19
1100
0100
1100
0000
,  // measure 20
2002
0000
0000
3003
,  // measure 21
1000
0000
0010
0000
0100
0000
0100
0100
,  // measure 22
0001
0000
0010
0000
0100
0000
0010
0010
,  // measure 23
0100
0000
1000
0000
0010
0000
0100
0100
,  // measure 24
0001
0100
0010
1000
,  // measure 25
0001
0000
1000
0000
0100
0010
0100
0000
,  // measure 26
0010
0000
0001
0000
1000
0100
1000
0000
,  // measure 27
0001
0000
0100
0000
0010
0100
0010
0000
,  // measure 28
2002
0000
0000
3003
,  // measure 29
2000
0000
3100
0000
0100
0100
0100
0000
,  // measure 30
0010
0001
0100
0010
,  // measure 31
0110
0110
0000
0000
,  // measure 32
1001
1001
0000
0000
,  // measure 33
0002
0000
0013
0000
0100
1000
0100
0000
,  // measure 34
0010
1000
0010
0100
,  // measure 35
0110
0110
0000
0000
,  // measure 36
1001
1001
0000
0000
,  // measure 37
1000
0100
0010
0001
,  // measure 38
1000
1100
0101
0000
,  // measure 39
0001
0100
0010
1000
,  // measure 40
0010
0000
0000
0100
0010
0100
0010
0100
,  // measure 41
0010
1010
0010
0010
,  // measure 42
0001
0101
1000
0100
,  // measure 43
0010
0110
0100
0100
,  // measure 44
1000
1001
0001
2000
,  // measure 45
0000
3000
0000
0000
;

//---------------dance-single - Chewi----------------
#NOTES:
     dance-single:
     Chewi:
     Hard:
     9:
     0.416,0.438,0.163,0.163,0.047: // measure 1
0000
0000
0000
0000
,  // measure 2
0000
0000
0000
0000
,  // measure 3
0000
0000
0000
0000
,  // measure 4
0000
0000
0000
0000
,  // measure 5
1000
0000
0000
0100
0000
0000
0010
0000
0200
0000
0000
0000
1300
0000
0000
0000
,  // measure 6
0010
0000
0000
0100
0000
0000
0001
0000
0200
0000
0000
0000
0310
0000
0000
0000
,  // measure 7
1000
0000
0000
0100
0000
0000
0010
0000
0002
0000
0000
0000
0103
0000
0000
0000
,  // measure 8
1000
0000
0000
0010
0000
0000
1000
0000
0100
0000
0010
0000
0001
0000
0000
0000
,  // measure 9
0001
0010
0100
0000
1000
0010
0001
0000
,  // measure 10
1000
0100
0010
0000
0001
0100
1000
0000
,  // measure 11
0010
0100
0001
0010
0100
1000
0010
0000
,  // measure 12
0100
0010
0100
0000
2002
0000
3003
0000
,  // measure 13
2000
3100
0101
0000
,  // measure 14
0001
0100
0010
1000
0001
0000
0000
0000
,  // measure 15
0020
0130
1001
0000
,  // measure 16
1000
0010
0100
0001
0010
0000
0000
0000
,  // measure 17
0100
0001
0010
0001
0100
0000
0000
0000
,  // measure 18
0100
1000
0010
1000
0100
0000
0000
0000
,  // measure 19
0010
0100
1000
0001
0100
0000
0010
0000
,  // measure 20
0000
0100
0001
0010
0100
1000
0010
0000
,  // measure 21
0100
0001
0100
1000
0010
0000
0110
0000
,  // measure 22
0010
1000
0100
0001
0010
0000
0110
0000
,  // measure 23
0010
0001
0100
0010
0100
0001
0010
0100
,  // measure 24
0000
0011
0000
0001
0010
0100
1000
0000
,  // measure 25
0100
1000
0010
1000
0100
0000
1001
0000
,  // measure 26
1000
0010
0100
0001
0100
0000
0110
0000
,  // measure 27
0100
0001
0010
0001
0100
0010
1000
0100
,  // measure 28
0010
0100
0000
1000
0100
0010
0002
0000
,  // measure 29
1003
0000
1100
0000
0001
1000
0100
0000
,  // measure 30
0010
0001
0100
0000
0010
1000
0100
0000
,  // measure 31
0010
0000
0000
0010
0200
0000
0000
0000
0300
0000
0000
0000
0010
0000
1000
0000
,  // measure 32
0100
0000
0000
0010
0200
0000
0000
0000
0300
0000
0000
0000
0000
0000
0000
0000
,  // measure 33
0001
0101
1000
1010
,  // measure 34
0001
0010
1000
0000
1000
0100
0001
0000
,  // measure 35
0010
0000
0000
0100
0020
0000
0000
0000
0030
0000
0001
0000
0010
0000
0100
0000
,  // measure 36
1000
0000
0000
1000
0200
0000
0000
0000
0300
0000
0000
0000
0000
0000
0000
0000
,  // measure 37
1100
0100
0010
0001
,  // measure 38
0100
1000
0010
0001
0020
0000
0030
0000
,  // measure 39
0101
0100
0001
0100
,  // measure 40
0011
0000
0000
0010
1000
0100
1000
0010
,  // measure 41
0100
0100
0010
0010
1000
1000
0001
0001
,  // measure 42
1000
0100
0010
0001
1000
0100
0010
0001
,  // measure 43
0010
0010
0100
0100
1000
1000
0001
0001
,  // measure 44
0001
0100
0010
1000
0001
0100
0010
2000
,  // measure 45
0000
3000
0000
0000
;
