#VERSION:0.83;
#TITLE:Talk About;
#SUBTITLE:;
#ARTIST:Rain Radio & DJ Craig Gorman;
#TITLETRANSLIT:;
#SUBTITLETRANSLIT:;
#ARTISTTRANSLIT:;
#GENRE:;
#ORIGIN:;
#CREDIT:;
#BANNER:Talk About.png;
#BACKGROUND:Talk About-bg.png;
#PREVIEWVID:;
#JACKET:Talk About-jacket.png;
#CDIMAGE:;
#DISCIMAGE:;
#LYRICSPATH:;
#CDTITLE:cdtitle.png;
#MUSIC:Talk About.ogg;
#OFFSET:0.000000;
#SAMPLESTART:61.935001;
#SAMPLELENGTH:12.000000;
#SELECTABLE:YES;
#BPMS:0.000=124.000,
32.000=62.000,
48.000=124.000;
#STOPS:;
#DELAYS:;
#WARPS:;
#TIMESIGNATURES:0.000=4=4;
#TICKCOUNTS:0.000=4;
#COMBOS:0.000=1;
#SPEEDS:0.000=1.000=0.000=0;
#SCROLLS:0.000=1.000;
#FAKES:;
#LABELS:0.000=Song Start;
#BGCHANGES:;
#KEYSOUNDS:;
#ATTACKS:
;

//---------------dance-single - ----------------
#NOTEDATA:;
#CHARTNAME:;
#STEPSTYPE:dance-single;
#DESCRIPTION:;
#CHARTSTYLE:;
#DIFFICULTY:Hard;
#METER:12;
#RADARVALUES:0.551316,0.536573,0.031633,0.021089,0.337418,366.000000,363.000000,3.000000,2.000000,0.000000,0.000000,0.000000,0.000000,0.000000,0.551316,0.536573,0.031633,0.021089,0.337418,366.000000,363.000000,3.000000,2.000000,0.000000,0.000000,0.000000,0.000000,0.000000;
#CREDIT:chewi;
#NOTES:
0000
0000
0000
0000
,
0000
0000
0000
0000
,
0000
0000
0000
0000
,
0000
0000
0000
0000
,
0000
0000
0000
0000
1000
0000
0001
0000
0010
0000
0100
0000
0010
0000
0001
0010
,
0001
0010
0001
0000
1000
0000
0010
0100
0010
0100
0010
0000
0100
0000
0000
0000
,
0001
0000
0010
0000
0100
0000
1000
0000
0001
0000
0100
0000
0010
0000
1000
0010
,
1000
0010
1000
0000
0001
0000
0010
0001
0010
0001
0010
0000
0100
0000
1000
0000
,
0001
0000
0100
0000
0001
0000
1000
0000
0100
0000
1000
0001
0010
0000
0010
0001
,
0000
0000
0100
0000
0010
0000
1000
0000
0010
0000
0100
0001
0010
0000
0010
0001
,
0000
0000
1000
0000
0100
0000
1000
0000
0001
0000
0001
0010
0100
0000
0100
0010
,
0000
0000
0010
0000
0001
0000
0100
0000
0010
0000
1000
0010
0100
0000
0100
0001
,
1000
0000
0100
0000
0100
0000
0100
0000
0100
1000
0100
1000
0010
1000
0010
1000
,
0010
1000
0010
0001
1000
0100
0001
1000
,
0001
0000
0100
0000
0010
0000
0100
0000
0010
0100
0010
0000
1000
0000
1000
0000
,
0100
0001
1000
0010
0100
0010
0010
0100
,
0000
0000
0100
0000
0010
0000
0001
0000
1000
0000
0001
0000
1000
0000
0010
0003
,
0010
1000
0010
0001
0010
1000
0010
0100
,
0000
0000
0100
0000
0010
0000
1000
0001
1000
0001
1000
0000
0010
0000
1000
0010
,
1000
0010
1000
0000
0001
0000
0100
0001
0100
0001
0100
0000
1001
0000
0000
0000
,
0100
0100
0100
0100
0000
0010
0001
0100
,
0010
1000
0001
0100
0000
0001
1000
0100
,
0010
0010
0010
0010
0000
0100
1000
0010
,
0100
0000
0001
0000
1000
0000
0010
1000
0100
0000
0010
0000
0001
0010
0001
0000
,
0100
0001
0100
0001
0100
0010
0100
0010
,
1000
0010
1000
0010
1000
0100
1000
0100
,
0010
0100
0010
0100
1000
0001
1000
0001
,
1000
0000
0001
0000
1000
0000
0100
0010
0100
0010
0100
0000
0010
0000
0000
0000
,
0011
0000
0000
0000
0001
0000
1000
0000
0100
0000
0010
0000
0100
0000
1000
0100
,
1000
0100
1000
0000
0001
0000
0100
0010
0100
0010
0100
0000
0010
0000
0000
0000
,
1000
0000
0100
0000
0010
0000
0001
0000
1000
0000
0010
0000
0100
0000
0001
0100
,
0001
0100
0001
0000
1000
0000
0100
1000
0100
1000
0100
0000
0010
0000
0001
0000
,
1000
0000
0000
0000
0010
0000
0100
0000
0001
0000
1000
0000
0001
0000
0100
0001
,
0100
0001
0100
0000
0010
0000
1000
0001
1000
0001
1000
0000
0100
0000
0000
0000
,
0010
0000
0001
0000
1000
0000
0100
0000
0010
0000
0001
0000
1000
0000
0100
1000
,
0100
1000
0100
0000
1000
0000
0010
1000
0010
1000
0010
0000
0100
0000
0001
0000
,
1000
0000
0100
0000
0000
0000
0100
0000
1000
0000
0010
0000
0100
0000
0001
1000
,
0001
1000
0001
0000
0010
0000
0001
1000
0001
1000
0001
0000
0100
0000
0100
0000
,
0010
0000
0100
0000
0000
0000
0100
0000
0010
0000
1000
0000
0100
0000
0010
0100
,
0010
0100
0010
0000
0100
0000
1000
0001
1000
0001
1000
0000
0001
0000
0100
0000
,
0010
0000
1000
0000
0000
0000
0001
0000
0100
0000
0010
0000
0100
0000
0010
0100
,
0010
0100
0010
0000
0100
0000
0001
0100
0001
0100
0001
0000
0100
0000
0001
0000
,
1000
0000
0100
0000
0000
0000
0010
0000
0001
0000
0010
0000
0100
0000
1000
0100
,
1000
0100
1000
0000
0010
0000
0100
0001
0100
0001
0100
0000
0001
0000
1000
0000
,
2002
3003
0000
0000
;

//---------------dance-single - ----------------
#NOTEDATA:;
#CHARTNAME:;
#STEPSTYPE:dance-single;
#DESCRIPTION:;
#CHARTSTYLE:;
#DIFFICULTY:Medium;
#METER:10;
#RADARVALUES:0.372063,0.419927,0.105443,0.021089,0.073810,247.000000,237.000000,10.000000,2.000000,0.000000,0.000000,0.000000,0.000000,0.000000,0.372063,0.419927,0.105443,0.021089,0.073810,247.000000,237.000000,10.000000,2.000000,0.000000,0.000000,0.000000,0.000000,0.000000;
#CREDIT:chewi;
#NOTES:
0000
0000
0000
0000
,
0000
0000
0000
0000
,
0000
0000
0000
0000
,
0000
0003
0000
0000
0000
0000
0000
0000
,
0001
0000
1000
0100
0010
0000
0000
0001
,
1000
0001
1000
0010
0100
0010
0100
0000
,
0100
0000
0001
0100
0010
0000
0000
1000
,
0001
1000
0001
0010
0100
0010
0100
0000
,
1000
0000
0001
0000
0100
0000
0010
0000
1000
0000
0001
0000
1000
0000
0000
1000
,
0000
0000
0001
0000
0010
0000
0100
0000
1000
0000
0001
0000
0010
0000
0000
0010
,
0000
0000
0001
0000
0100
0000
0010
0000
1000
0000
0001
0000
0100
0000
0000
0100
,
0000
0010
1000
0001
1000
1100
0001
0101
,
0100
0010
0100
0000
0010
0100
0001
0000
,
1000
1100
0001
0101
,
1000
0100
0010
0000
0001
0010
0001
0000
,
0010
1100
0010
0101
,
1000
0001
1000
0001
0100
0000
0110
0000
,
1000
0001
1000
0001
0010
0000
0110
0000
,
0100
1000
0010
1000
0100
0100
1300
0000
,
1000
1000
3010
0000
0010
0010
0130
0001
,
0100
0000
0000
0100
0000
0000
0100
0000
0000
0000
0010
0000
1000
0000
0000
0000
,
0001
0000
0000
0001
0000
0000
0001
0000
0000
0000
1000
0000
0100
0000
0000
0000
,
0010
0000
0000
0010
0000
0000
0010
0000
0000
0000
0100
0000
1000
0000
0000
0000
,
0001
0010
0100
1000
0001
1000
0100
0000
,
1000
1000
0010
0010
,
0100
0100
0001
0001
,
1000
1000
0001
0001
,
1000
0001
1000
0001
1000
1000
0001
0000
,
0101
0000
0001
0010
0100
0000
0000
1000
,
0001
1000
0001
0100
0010
0100
0010
0000
,
0010
0000
1000
0010
0100
0000
0000
0001
,
1000
0001
1000
0100
0010
0100
0010
0000
,
0001
0000
0100
0001
1000
0000
0000
0010
,
0100
0010
0100
0001
1000
0001
1000
0000
,
0001
0000
0010
0001
1000
0000
0000
0010
,
0100
0010
0100
0001
1000
0001
1000
0000
,
0100
0000
0000
0100
1000
0000
0000
0000
0001
0000
0000
0001
0010
0000
0000
0000
,
0100
0100
1000
0000
1000
1000
0100
0000
,
0010
0000
0000
0010
0001
0000
0000
0000
1000
0000
0000
1000
0010
0000
0000
0000
,
0010
0010
1000
0000
1000
1000
0010
0000
,
0100
0000
0000
0100
0001
0000
0000
0000
0001
0000
0000
0001
0100
0000
0000
0000
,
0001
0001
1000
0000
1000
1000
0001
0000
,
0010
0000
0000
0010
0100
0000
0000
0000
1000
0000
0000
1000
0001
0000
0000
0000
,
1000
1000
1000
0000
0001
0001
0001
0000
,
2002
3003
0000
0000
;

//---------------dance-single - ----------------
#NOTEDATA:;
#CHARTNAME:;
#STEPSTYPE:dance-single;
#DESCRIPTION:;
#CHARTSTYLE:;
#DIFFICULTY:Easy;
#METER:5;
#RADARVALUES:0.209380,0.279951,0.021089,0.337418,0.000000,139.000000,137.000000,2.000000,32.000000,0.000000,0.000000,0.000000,0.000000,0.000000,0.209380,0.279951,0.021089,0.337418,0.000000,139.000000,137.000000,2.000000,32.000000,0.000000,0.000000,0.000000,0.000000,0.000000;
#CREDIT:chewi;
#NOTES:
// measure 0
0000
0000
0000
0000
,  // measure 1
0000
0000
0000
0000
,  // measure 2
0000
0000
0000
0000
,  // measure 3
0000
0000
0000
0000
,  // measure 4
1000
0100
0001
0000
,  // measure 5
0100
0000
0010
0000
,  // measure 6
0001
0100
1000
0000
,  // measure 7
0100
0000
0010
0000
,  // measure 8
2000
0000
3200
0000
2300
0000
3010
0010
,  // measure 9
0020
0000
0230
0000
0320
0000
1030
1000
,  // measure 10
2000
0000
3200
0000
0320
0000
0031
0001
,  // measure 11
0002
0000
0023
0000
0130
1000
0100
1000
,  // measure 12
0001
0010
0001
0000
,  // measure 13
1000
0010
1000
0000
,  // measure 14
0001
0100
0001
0000
,  // measure 15
1000
0100
1000
0000
,  // measure 16
0001
0010
0100
1000
,  // measure 17
1000
0010
0100
0001
,  // measure 18
0001
0100
0002
0103
,  // measure 19
0200
0301
0002
0103
,  // measure 20
0100
0000
0000
0100
0000
0000
0000
0000
,  // measure 21
0010
0000
0000
0010
0000
0000
0000
0000
,  // measure 22
1000
0000
0000
1000
0000
0000
0000
0000
,  // measure 23
0001
0000
0000
0001
0000
0000
0000
0000
,  // measure 24
0001
0100
0001
0100
,  // measure 25
0010
1000
0010
1000
,  // measure 26
1000
0100
1000
0100
,  // measure 27
0010
0001
0010
0000
,  // measure 28
1001
0100
0001
0000
,  // measure 29
0200
0310
0020
0130
,  // measure 30
0000
0100
1000
0000
,  // measure 31
0200
1300
2000
3100
,  // measure 32
0001
0010
1000
0000
,  // measure 33
0020
0130
0200
0310
,  // measure 34
0000
0010
0001
0000
,  // measure 35
0020
0031
0002
0013
,  // measure 36
0010
0010
0100
0000
,  // measure 37
2000
3001
0002
1003
,  // measure 38
0001
0001
0100
0000
,  // measure 39
0200
0301
0002
0103
,  // measure 40
0100
0010
0010
0000
,  // measure 41
0020
1030
2000
3010
,  // measure 42
1000
1000
0001
0000
,  // measure 43
0002
1003
2000
3001
,  // measure 44
2002
3003
0000
0000
;

//---------------dance-single - ----------------
#NOTEDATA:;
#CHARTNAME:;
#STEPSTYPE:dance-single;
#DESCRIPTION:;
#CHARTSTYLE:;
#DIFFICULTY:Beginner;
#METER:3;
#RADARVALUES:0.106949,0.139976,0.021089,0.210886,0.000000,71.000000,69.000000,2.000000,20.000000,0.000000,0.000000,0.000000,0.000000,0.000000,0.106949,0.139976,0.021089,0.210886,0.000000,71.000000,69.000000,2.000000,20.000000,0.000000,0.000000,0.000000,0.000000,0.000000;
#CREDIT:chewi;
#NOTES:
// measure 0
0000
0000
0000
0000
,  // measure 1
0000
0000
0000
0000
,  // measure 2
0000
0000
0000
0000
,  // measure 3
0000
0000
0000
0000
,  // measure 4
1000
0000
0000
0000
,  // measure 5
0100
0000
0000
0000
,  // measure 6
0001
0000
0000
0000
,  // measure 7
0100
0000
0000
0000
,  // measure 8
2000
3000
1300
3000
,  // measure 9
0020
0030
0310
0030
,  // measure 10
0200
3300
0100
0030
,  // measure 11
0002
0003
0031
0000
,  // measure 12
0001
0000
0001
0000
,  // measure 13
1000
0000
1000
0000
,  // measure 14
0100
0000
0100
0000
,  // measure 15
0010
0000
0010
0000
,  // measure 16
0001
0000
0100
0000
,  // measure 17
1000
0000
0100
0000
,  // measure 18
0001
0000
0010
0003
,  // measure 19
0100
0300
1000
0003
,  // measure 20
2000
0000
0300
3000
,  // measure 21
1000
0000
0030
0000
,  // measure 22
0002
0000
3000
0003
,  // measure 23
0001
0000
0003
0000
,  // measure 24
0010
0000
0010
0000
,  // measure 25
0100
0000
0100
0000
,  // measure 26
1000
0000
1000
0000
,  // measure 27
0010
0000
0010
0000
,  // measure 28
0110
0000
0100
0000
,  // measure 29
0200
0300
0020
0330
,  // measure 30
1030
0000
0001
0000
,  // measure 31
2000
3300
0002
3033
,  // measure 32
0001
0000
0010
0000
,  // measure 33
0200
0330
0020
0330
,  // measure 34
0010
0000
0001
0000
,  // measure 35
2000
3000
0002
0003
,  // measure 36
0100
0000
0100
0000
,  // measure 37
0200
3000
0000
0303
,  // measure 38
0010
0000
0010
0000
,  // measure 39
0020
0300
0000
0033
,  // measure 40
1000
0000
0001
0000
,  // measure 41
2000
0030
0000
3000
,  // measure 42
0001
0000
1000
0000
,  // measure 43
0002
0000
0000
3003
,  // measure 44
2002
3003
0000
0000
;
