#VERSION:0.81;
#TITLE:接招 (feat. 張萱妍);
#SUBTITLE:;
#ARTIST:林逸欣;
#TITLETRANSLIT:Take That (feat. Xuan Zhang Yan);
#SUBTITLETRANSLIT:;
#ARTISTTRANSLIT:Shara Lin;
#GENRE:;
#ORIGIN:;
#CREDIT:chewi;
#BANNER:Take That (feat. Xuan Zhang Yan).png;
#BACKGROUND:Take That (feat. Xuan Zhang Yan)-bg.png;
#PREVIEWVID:;
#JACKET:Take That (feat. Xuan Zhang Yan)-jacket.png;
#CDIMAGE:;
#DISCIMAGE:;
#LYRICSPATH:;
#CDTITLE:cdtitle.png;
#MUSIC:Take That (feat. Xuan Zhang Yan).ogg;
#OFFSET:-0.500000;
#SAMPLESTART:46.507000;
#SAMPLELENGTH:15.000000;
#SELECTABLE:YES;
#DISPLAYBPM:104.000000;
#BPMS:0.000=104.000;
#STOPS:;
#DELAYS:;
#WARPS:;
#TIMESIGNATURES:0.000=4=4;
#TICKCOUNTS:0.000=4;
#COMBOS:0.000=1;
#SPEEDS:0.000=1.000=0.000=0;
#SCROLLS:0.000=1.000;
#FAKES:;
#LABELS:0.000=Song Start;
#BGCHANGES:;
#KEYSOUNDS:;
#ATTACKS:
;

//---------------dance-single - ----------------
#NOTEDATA:;
#CHARTNAME:;
#STEPSTYPE:dance-single;
#DESCRIPTION:;
#CHARTSTYLE:;
#DIFFICULTY:Beginner;
#METER:1;
#RADARVALUES:0.097303,0.122409,0.038554,0.115662,0.000000,41.000000,3.000000,9.000000,0.000000,0.000000,0.000000,0.000000,0.000000,0.097303,0.122409,0.038554,0.115662,0.000000,41.000000,3.000000,9.000000,0.000000,0.000000,0.000000,0.000000,0.000000;
#CREDIT:;
#DISPLAYBPM:104.000000;
#NOTES:
// measure 0
0000
0000
0000
0000
,  // measure 1
0000
0000
0000
0000
,  // measure 2
0000
0000
0000
0000
,  // measure 3
0000
0000
0000
0000
,  // measure 4
0010
0000
0000
0000
,  // measure 5
0100
0000
0000
0000
,  // measure 6
0010
0000
0000
0000
,  // measure 7
0110
0000
0000
0000
,  // measure 8
1000
0000
0000
0000
,  // measure 9
0001
0000
0000
0000
,  // measure 10
1000
0000
0000
0000
,  // measure 11
1001
0000
0000
0000
,  // measure 12
0002
0000
0000
0003
,  // measure 13
2000
0000
0000
3000
,  // measure 14
0002
0000
0000
0003
,  // measure 15
1000
1000
1000
0000
,  // measure 16
0020
0000
0000
0030
,  // measure 17
0200
0000
0000
0300
,  // measure 18
0020
0000
0000
0030
,  // measure 19
0110
0000
0000
0000
,  // measure 20
0010
0000
0010
0000
,  // measure 21
0010
0000
0010
0000
,  // measure 22
1000
0000
1000
0000
,  // measure 23
1000
0000
1000
0000
,  // measure 24
0100
0000
0100
0000
,  // measure 25
0100
0000
0100
0000
,  // measure 26
0001
0000
0001
0000
,  // measure 27
0001
0000
0001
0000
,  // measure 28
0020
0000
0000
0030
,  // measure 29
0200
0000
0000
0300
,  // measure 30
0020
0000
0000
0030
,  // measure 31
0100
0100
0100
0100
;

//---------------dance-single - ----------------
#NOTEDATA:;
#CHARTNAME:;
#STEPSTYPE:dance-single;
#DESCRIPTION:;
#CHARTSTYLE:;
#DIFFICULTY:Easy;
#METER:2;
#RADARVALUES:0.123006,0.122409,0.012851,0.102811,0.000000,58.000000,1.000000,8.000000,0.000000,0.000000,0.000000,0.000000,0.000000,0.123006,0.122409,0.012851,0.102811,0.000000,58.000000,1.000000,8.000000,0.000000,0.000000,0.000000,0.000000,0.000000;
#CREDIT:;
#DISPLAYBPM:104.000000;
#NOTES:
// measure 0
0000
0000
0000
0000
,  // measure 1
0000
0000
0000
0000
,  // measure 2
0000
0000
0000
0000
,  // measure 3
0000
0000
0000
0000
,  // measure 4
1000
1000
0000
0000
,  // measure 5
0100
0100
0000
0000
,  // measure 6
0010
0010
0000
0000
,  // measure 7
0001
0001
1000
1000
,  // measure 8
0001
0001
0000
0000
,  // measure 9
0100
0100
0000
0000
,  // measure 10
0010
0010
0000
0000
,  // measure 11
1000
1000
0001
0001
,  // measure 12
0020
0000
0000
0030
,  // measure 13
2000
0000
0000
3000
,  // measure 14
0200
0000
0000
0300
,  // measure 15
0002
0000
0000
0003
,  // measure 16
0020
0000
0000
0030
,  // measure 17
0002
0000
0000
0003
,  // measure 18
0200
0000
0000
0300
,  // measure 19
2000
0000
0000
3000
,  // measure 20
0001
0000
1000
0000
,  // measure 21
0001
1000
0001
0000
,  // measure 22
1000
0000
0001
0000
,  // measure 23
1000
0001
1000
0000
,  // measure 24
0010
0000
0100
0000
,  // measure 25
0010
0100
0010
0000
,  // measure 26
0100
0000
0010
0000
,  // measure 27
0100
0010
0100
0000
,  // measure 28
1001
0000
1000
0000
,  // measure 29
0001
0000
0001
0000
,  // measure 30
1000
0000
0001
0000
,  // measure 31
0001
1000
0001
1000
;

//---------------dance-single - ----------------
#NOTEDATA:;
#CHARTNAME:;
#STEPSTYPE:dance-single;
#DESCRIPTION:;
#CHARTSTYLE:;
#DIFFICULTY:Medium;
#METER:5;
#RADARVALUES:0.253355,0.224416,0.115662,0.179919,0.000000,115.000000,9.000000,14.000000,0.000000,0.000000,0.000000,0.000000,0.000000,0.253355,0.224416,0.115662,0.179919,0.000000,115.000000,9.000000,14.000000,0.000000,0.000000,0.000000,0.000000,0.000000;
#CREDIT:;
#DISPLAYBPM:104.000000;
#NOTES:
// measure 0
0000
0000
0000
0000
,  // measure 1
0000
0000
0000
0000
,  // measure 2
0000
0000
0000
0000
,  // measure 3
0000
0000
0000
0000
,  // measure 4
2000
0000
3100
1100
,  // measure 5
0002
0000
0103
0101
,  // measure 6
0200
0000
0310
0110
,  // measure 7
0010
0010
0010
0000
0010
0010
0010
0000
,  // measure 8
2000
0000
3010
1010
,  // measure 9
0002
0000
0013
0011
,  // measure 10
2000
0000
3100
1100
,  // measure 11
0001
0001
0001
0000
1000
1000
1000
0000
,  // measure 12
0002
0100
1000
0100
,  // measure 13
2003
0100
0001
0100
,  // measure 14
3002
0010
1000
0013
,  // measure 15
0110
0100
1000
0001
,  // measure 16
2000
0010
0100
0010
,  // measure 17
3002
0010
0100
0010
,  // measure 18
2003
0100
0001
3100
,  // measure 19
2002
0000
0000
3003
,  // measure 20
1000
0000
1000
0000
0001
1000
0001
0000
,  // measure 21
1000
0100
0010
0001
,  // measure 22
1000
0000
0001
0000
1000
0001
1000
0000
,  // measure 23
0001
0100
0010
1000
,  // measure 24
0010
0000
0100
0000
0010
0100
0010
0000
,  // measure 25
0100
0001
1000
0010
,  // measure 26
0100
0000
0100
0000
0010
0100
0010
0000
,  // measure 27
1000
0001
0010
0110
,  // measure 28
0010
0000
0010
0000
0010
0010
0010
0000
,  // measure 29
0100
0000
0010
0000
0100
0100
0100
0000
,  // measure 30
1000
0000
1000
0000
1000
1000
1000
0000
,  // measure 31
1000
0000
0001
0000
1000
0001
1000
0000
;

//---------------dance-single - ----------------
#NOTEDATA:;
#CHARTNAME:;
#STEPSTYPE:dance-single;
#DESCRIPTION:;
#CHARTSTYLE:;
#DIFFICULTY:Hard;
#METER:8;
#RADARVALUES:0.418586,0.431804,0.205621,0.244175,0.128513,193.000000,16.000000,19.000000,0.000000,0.000000,0.000000,0.000000,0.000000,0.418586,0.431804,0.205621,0.244175,0.128513,193.000000,16.000000,19.000000,0.000000,0.000000,0.000000,0.000000,0.000000;
#CREDIT:;
#DISPLAYBPM:104.000000;
#NOTES:
// measure 0
0000
0000
0000
0000
,  // measure 1
0000
0000
0000
0000
,  // measure 2
0000
0000
0000
0000
,  // measure 3
0000
0000
0000
0000
,  // measure 4
0000
1000
0100
0010
0001
1000
0100
0200
,  // measure 5
0000
0310
0100
1000
0001
0010
0022
0000
,  // measure 6
0033
0001
0100
0010
1000
0001
0100
0100
,  // measure 7
0010
0100
0000
0100
0010
0000
1000
0000
0000
0000
1001
0000
1001
0000
0000
0000
,  // measure 8
0000
0001
0010
0001
0100
0001
0010
0020
,  // measure 9
0000
0130
1000
0010
1000
0100
2002
0000
,  // measure 10
3003
1000
0100
0010
0001
1000
0100
0100
,  // measure 11
1000
0001
0000
0001
0100
0000
0010
0000
1000
0000
0010
0000
0010
0000
1000
0000
,  // measure 12
0000
0001
0010
0100
1000
0001
0100
0100
,  // measure 13
0000
0010
1000
0001
0100
0010
1000
0001
,  // measure 14
2002
0000
0000
0000
3003
0000
1000
0100
,  // measure 15
0012
0000
2003
0000
3200
0000
1000
2000
,  // measure 16
0000
3300
0001
0000
0010
0000
0100
0000
1000
0000
0010
0000
0100
0000
0101
0000
,  // measure 17
0000
0010
1000
0001
0100
0010
1000
1000
,  // measure 18
1020
0000
0230
0000
0302
0000
0010
0013
,  // measure 19
0220
0000
0000
0330
,  // measure 20
0100
0000
0000
0100
0010
0000
0001
0000
0010
0000
0100
0000
1000
0000
0001
0000
,  // measure 21
1000
0100
0000
0100
1000
0000
0001
0000
0100
0000
0100
0000
0110
0000
0000
0000
,  // measure 22
0010
0000
0000
0010
0100
0000
0001
0000
1000
0000
0010
0000
1000
0000
0001
0000
,  // measure 23
1000
0100
0000
0100
0010
0000
0001
0000
1000
0000
0100
0000
1100
0000
0000
0000
,  // measure 24
0001
0000
0000
0001
0010
0000
0100
0000
0010
0000
0001
0000
1000
0000
0100
0000
,  // measure 25
1000
0001
0000
0001
0100
0000
0010
0000
1000
0000
0001
0000
1001
0000
0000
0000
,  // measure 26
1000
0000
0000
1000
0010
0000
0100
0000
0001
0000
1000
0000
0010
0000
0100
0000
,  // measure 27
0000
0010
0010
0010
1000
0001
1001
0000
,  // measure 28
0001
0000
0000
0001
1000
0000
0100
0000
0010
0000
0100
0000
1000
0000
0001
0000
,  // measure 29
1000
0100
0000
0100
1000
0000
0001
0000
0100
0000
0100
0000
0110
0000
0000
0000
,  // measure 30
0010
0000
0000
0010
0100
0000
0001
0000
1000
0000
0010
0000
1000
0000
0001
0000
,  // measure 31
1000
0000
0001
0100
0001
0000
1000
0100
1000
0000
1001
0000
2002
0000
0000
0000
,  // measure 32
3003
0000
0000
0000
;
