#TITLE:つつみ込むように…;
#SUBTITLE:;
#ARTIST:MISIA;
#TITLETRANSLIT:TSUTSUMI KOMU YOUNI...;
#SUBTITLETRANSLIT:;
#ARTISTTRANSLIT:;
#GENRE:;
#CREDIT:;
#MUSIC:TSUTSUMI KOMU YOUNI.ogg;
#BANNER:TSUTSUMI KOMU YOUNI.png;
#BACKGROUND:TSUTSUMI KOMU YOUNI-bg.png;
#CDTITLE:;
#SAMPLESTART:68.734;
#SAMPLELENGTH:12.000;
#SELECTABLE:YES;
#OFFSET:0.000;
#DISPLAYBPM:80.000;
#BPMS:0.000=79.872;
#STOPS:;
#BGCHANGES:;
#FGCHANGES:;

//--------------- dance-single - ----------------
#NOTES:
     dance-single:
     :
     Hard:
     8:
     0,0,0,0,0:
0000
0000
0000
0000
,
0000
0000
0000
0000
,
0020
0000
0000
0000
0000
0000
0000
0000
0000
0000
0000
0000
0000
0032
0000
0203
,
0000
2300
0000
0000
0000
3000
0000
0000
0000
0000
0000
0000
0000
0000
0000
0000
,
2000
3002
0023
0230
,
2300
0000
0000
0002
0000
0000
0000
0000
3003
0000
0000
0000
0000
0000
0000
0000
,
1001
0000
0010
0000
1000
1000
0100
0000
,
0001
0000
0010
0000
0001
0001
0100
0000
,
0100
1000
0010
0000
0100
1000
0010
0000
,
0100
0001
0010
0000
0100
0001
0010
0000
,
1000
0000
0100
0000
0010
0001
0010
0000
,
0001
0000
0010
0000
0100
1000
0100
0000
,
1000
0000
0001
0000
0100
0001
0100
0000
,
0001
0000
1000
0000
0100
1000
0100
0000
,
1200
0000
0001
0000
1000
1000
0301
0000
,
0201
0000
1000
0000
0001
0001
1300
0000
,
1001
0000
0100
0000
0010
0010
0010
0000
,
1001
0000
0010
0000
0100
0100
0100
0000
,
1020
0000
0001
0000
1000
1000
0031
0000
,
0021
0000
1000
0000
0001
0001
1030
0000
,
0110
0100
0100
0000
1001
1000
1000
0001
,
0002
0100
0203
0010
0320
1000
2030
0000
,
3001
0010
1000
0100
,
0001
0010
1000
0000
1000
0010
0001
0000
,
0010
0001
0100
0001
0010
0000
0110
0000
,
1000
0100
0001
0000
0001
0100
1000
0000
,
0100
1000
0010
1000
0100
0000
0110
0000
,
0100
1000
1000
0000
0010
0100
0100
0000
,
0001
0010
0100
1000
0001
0001
1001
0000
,
0100
0010
0010
0000
1000
0001
0001
0000
,
0010
0100
1000
0001
0010
0100
1000
0001
,
0010
0000
0000
0000
;
