#TITLE:TRUE♥LOVE (Clubstar's True Club Mix);
#SUBTITLE:;
#ARTIST:jun feat. Schanita;
#TITLETRANSLIT:;
#SUBTITLETRANSLIT:;
#ARTISTTRANSLIT:;
#GENRE:;
#CREDIT:Chewi☆;
#MENUCOLOR:#FFFFFF;
#METERTYPE:DDR X;
#BANNER:TRUE LOVE (Clubstar's True Club Mix).png;
#BACKGROUND:TRUE LOVE (Clubstar's True Club Mix)-bg.png;
#LYRICSPATH:;
#CDTITLE:./CDTITLES/DanceDanceRevolution skyMIX2 -FREEDOM-.png;
#MUSIC:TRUE LOVE (Clubstar's True Club Mix).mp3;
#OFFSET:-1.824;
#SAMPLESTART:44.469;
#SAMPLELENGTH:15.000;
#SELECTABLE:YES;
#LISTSORT:;
#DISPLAYBPM:135.000;
#BPMS:0.000=135.000;
#STOPS:;
#BGCHANGES:;
#ATTACKS:;

//---------------dance-single - Chewi----------------
#NOTES:
     dance-single:
     Chewi:
     Beginner:
     2:
     0.111,0.132,0.010,0.092,0.000:
0000
0000
0000
0000
,
0000
0000
0000
0000
,
0000
0000
0000
0000
,
0000
0000
0000
0000
,
0020
0000
0000
0030
,
0010
0000
0000
0000
,
0200
0000
0000
0300
,
0100
0000
0000
0000
,
1000
0000
0000
0000
,
0001
0000
0000
0000
,
1000
0000
0000
0000
,
0001
0001
0000
0000
,
0100
0000
0000
0000
,
0010
0000
0000
0000
,
0100
0000
0000
0000
,
0010
0010
0000
0000
,
1000
0000
1000
0000
,
0001
0000
0001
0000
,
0010
0000
0010
0000
,
0100
0000
0100
0000
,
0010
0000
0010
0000
,
0001
0000
0001
0000
,
1000
0000
1000
0000
,
1001
0000
0000
0000
,
2000
0000
0000
3000
,
1000
0000
0000
0000
,
0002
0000
0000
0003
,
0001
0000
0000
0000
,
0200
0000
0000
0300
,
0100
0000
0000
0000
,
0020
0000
0000
0030
,
0010
0000
0000
0010
,
0010
0000
1000
0000
,
0100
0000
0001
0000
,
0001
0000
0100
0000
,
1000
0000
0010
0000
,
0100
0000
0010
0000
,
0100
0000
0010
0000
,
1000
0000
0001
0000
,
1000
0000
0001
0000
,
0002
0000
0000
0000
,
0000
0000
0000
0000
,
0000
0000
0000
0003
,
0001
0000
0000
0000
,
2000
0000
0000
0000
,
0000
0000
0000
0000
,
0000
0000
0000
3000
,
1000
0000
0000
0000
,
0100
0000
0100
0000
,
0010
0000
0010
0000
,
1000
0000
1000
0000
,
0002
0000
0003
0001
;

//---------------dance-single - Chewi----------------
#NOTES:
     dance-single:
     Chewi:
     Easy:
     4:
     0.188,0.190,0.051,0.174,0.000:
0000
0000
0000
0000
,
0000
0000
0000
0000
,
0000
0000
0000
0000
,
0000
0000
0000
0000
,
2000
0000
0000
3000
,
0200
0000
0000
0300
,
0002
0000
0000
0003
,
0020
0000
0000
0030
,
0100
0100
0100
0000
,
0010
0010
0010
0000
,
1000
0001
1000
0000
,
1001
0000
0000
0000
,
0001
0001
0001
0000
,
1000
1000
1000
0000
,
0010
0100
0010
0000
,
0110
0000
0000
0000
,
2000
0000
0100
0000
,
0002
0000
0000
3003
,
0002
0000
0100
0000
,
2000
0000
0000
3003
,
2000
0000
0010
0000
,
0002
0000
0000
3003
,
0002
0000
0010
0000
,
2000
0000
0000
3003
,
0001
0100
0001
0000
,
1000
0000
0001
0000
,
1000
0100
1000
0000
,
0001
0000
1001
0000
,
1000
0010
1000
0000
,
0001
0000
1000
0000
,
0001
0010
0001
0000
,
1000
0000
1001
0000
,
0100
0100
0100
0000
,
1000
0000
0010
0000
,
0010
0010
0010
0000
,
0001
0000
0010
0000
,
0100
0100
0100
0000
,
0001
0000
0100
0000
,
1000
1000
1000
0000
,
0100
0000
0100
0000
,
0010
0010
0010
0000
,
0001
1000
0001
0000
,
0100
0100
0100
0000
,
1000
0001
1000
0000
,
1000
1000
1000
0000
,
0010
0100
0010
0000
,
0001
0001
0001
0000
,
0100
0010
0100
0000
,
0020
0000
0000
0030
,
2000
0000
0000
3000
,
0020
0000
0000
0030
,
0100
0100
0100
0220
,
0000
0000
0000
0000
,
0330
0000
0000
0000
;

//---------------dance-single - Chewi----------------
#NOTES:
     dance-single:
     Chewi:
     Medium:
     6:
     0.321,0.352,0.123,0.102,0.056:
0000
0000
0000
0000
,
0000
0000
0000
0000
,
0000
0000
0000
0000
,
0000
0000
0000
0000
,
1000
0000
0000
1000
0000
0000
2000
0000
0000
0000
0000
0000
0000
0000
0000
0000
,
3001
0000
0000
0001
0000
0000
0002
0000
0000
0000
0000
0000
0000
0000
0000
0000
,
0103
0000
0000
0100
0000
0000
0200
0000
0000
0000
0000
0000
0000
0000
0000
0000
,
0310
0000
0000
0010
0000
0000
0010
0000
0100
0000
0000
0100
0000
0000
0100
0000
,
1000
0010
0001
0100
,
1000
0010
0001
0100
,
1000
0010
0001
0100
,
0110
0000
0000
0000
,
1000
0100
0001
0010
,
1000
0100
0001
0010
,
1000
0100
0001
0010
,
0110
0000
0000
0000
,
1000
1100
0001
0101
,
0100
0010
0100
0000
0010
0100
0010
0000
,
1000
1010
0001
0011
,
0010
0100
0010
0000
0100
0010
0100
0000
,
0001
1001
1000
1001
,
1000
0001
1000
0000
0001
1000
0001
0000
,
2000
0000
0002
0000
,
0000
0000
0000
3003
,
0001
0100
1000
0010
,
0100
0010
0100
0000
0010
0100
0010
0000
,
0010
1000
0100
0010
,
1000
0100
0001
0100
,
0001
0010
1000
0010
,
1000
0100
0001
0100
,
0010
0001
0100
0000
0010
1000
0100
0000
,
1000
0000
0000
1000
0000
0000
1000
0000
1000
0000
0000
0000
1001
0000
0000
0000
,
0001
0100
1000
0100
,
0001
0010
1000
0000
1000
0010
0001
0000
,
0100
0010
1000
0001
,
0010
0110
1001
0000
,
1000
0100
0001
0100
,
1000
0010
0001
0100
,
1000
0100
1000
0000
0001
0100
0001
0000
,
0100
0000
0000
0100
0000
0000
0100
0000
0100
0000
0000
0000
0000
0000
0000
0000
,
0010
0000
0010
0000
1000
0010
1000
0000
,
0100
0000
0100
0000
1000
0100
1000
0000
,
0100
0000
0100
0000
0100
0001
0100
0000
,
0010
0000
0010
0000
0001
0010
0001
0000
,
0010
0100
0001
1000
,
0100
0010
0001
1000
,
0010
1000
0010
0001
,
0100
1000
0010
0000
0001
0001
0001
0000
,
1000
0000
0000
1000
0000
0000
2000
0000
0000
0000
0000
0000
0000
0000
0000
0000
,
3001
0000
0000
0001
0000
0000
0002
0000
0000
0000
0000
0000
0000
0000
0000
0000
,
0103
0000
0000
0100
0000
0000
0200
0000
0000
0000
0000
0000
0000
0000
0000
0000
,
0310
0000
0000
0010
0000
0000
0010
0000
0001
0000
1000
0000
2002
0000
0000
0000
,
0000
0000
0000
0000
,
3003
0000
0000
0000
;

//---------------dance-single - Chewi----------------
#NOTES:
     dance-single:
     Chewi:
     Hard:
     10:
     0.483,0.460,0.133,0.174,0.041:
0000
0000
0000
0000
,
0000
0000
0000
0000
,
0000
0000
0000
0000
,
0000
0000
0000
0000
,
1000
0000
0000
1000
0000
0000
1000
0000
0000
0000
1000
0000
0000
0000
0000
0000
,
0100
0000
0000
0100
0000
0000
0100
0000
0000
0000
0100
0000
0000
0000
0000
0000
,
0010
0000
0000
0010
0000
0000
0010
0000
0000
0000
0010
0000
0000
0000
0000
0000
,
0001
0000
0000
0001
0000
0000
0001
0000
1000
0000
0000
0001
0000
0000
1001
0000
,
0010
1000
0100
2000
0000
3020
0000
0030
,
0100
0001
0010
0002
0000
0203
0000
0300
,
0010
1000
0001
0020
0000
0230
0000
0310
,
0001
0100
1000
0020
0000
0000
0030
0000
,
1000
0010
0100
0002
0000
2003
0000
3000
,
0001
0010
0100
2000
0000
3200
0000
0300
,
0001
0100
1000
0020
0000
0230
0000
0310
,
0100
0001
1000
0100
0010
0001
1001
0000
,
1000
0100
1000
0000
0001
0010
0001
0000
,
1000
0010
0001
0100
1000
0100
0001
0010
,
0100
0001
0010
0000
0100
1000
0010
0000
,
0010
1000
0100
0001
0010
0001
0100
1000
,
0010
0100
0001
0000
0100
0010
1000
0000
,
0100
0010
1000
0100
1000
0010
0100
1000
,
0001
1000
0001
1000
0010
0100
0010
0100
,
0220
0000
0000
0330
,
1010
0100
0011
0100
,
0010
0001
0100
1000
0010
1000
0100
0001
,
0010
0100
0010
0100
1000
0001
1000
0001
,
1000
0100
0001
0100
1000
0000
0000
0000
,
0101
0010
1010
0100
,
0001
0010
1000
0000
1000
0010
0001
0100
,
1000
0100
0001
0010
0100
1000
0001
1000
,
0010
0000
0000
0100
0000
0000
0010
0000
0010
0000
1000
0000
1010
0000
0000
0000
,
1000
0100
0010
0001
1000
0100
0010
0001
,
1000
0001
0100
0010
0000
0100
0010
1000
,
0001
0010
0100
1000
0000
0001
0100
1000
,
0010
0001
0010
1000
0100
0001
0010
0100
,
0010
1000
0100
0010
0100
0001
0100
0100
,
0010
0100
0001
1000
0000
0010
0001
0100
,
1000
0001
0100
1000
0000
0010
0001
0010
,
0100
0000
0000
0010
0000
0000
0110
0000
0000
1001
0000
0000
0110
0000
0000
0000
,
0010
1000
0100
1000
0000
0100
0001
0100
,
0000
0001
0010
0001
0000
0010
1000
0010
,
0000
1000
0100
1000
0000
1000
0001
1000
,
0001
0100
0010
0100
0010
0001
0100
1000
,
0010
0001
0010
0001
0000
0001
0100
0001
,
0000
0100
1000
0100
0000
1000
0010
1000
,
0000
0010
0001
0010
0000
0001
0100
0001
,
0100
1000
0001
0100
0010
1000
1001
0000
,
1000
0100
1000
0100
0010
0001
0100
0000
,
0001
0100
0001
0100
0010
1000
0100
0000
,
0010
0100
0010
0100
1000
0001
1000
0001
,
0100
0010
1000
0001
0010
0100
2002
0000
,
0000
0000
0000
0000
,
3003
0000
0000
0000
;
