#TITLE:나쁜 기집애;
#SUBTITLE:;
#ARTIST:CL;
#TITLETRANSLIT:THE BADDEST FEMALE;
#SUBTITLETRANSLIT:;
#ARTISTTRANSLIT:;
#GENRE:;
#CREDIT:chewi;
#BANNER:THE BADDEST FEMALE.png;
#BACKGROUND:THE BADDEST FEMALE-bg.png;
#LYRICSPATH:;
#CDTITLE:cdtitle.png;
#MUSIC:THE BADDEST FEMALE.mp3;
#OFFSET:-1.068000;
#SAMPLESTART:55.924999;
#SAMPLELENGTH:15.000000;
#SELECTABLE:YES;
#DISPLAYBPM:140.000000;
#BPMS:0.000000=140.000000
;
#STOPS:
;
#BGCHANGES:-3.000=THE BADDEST FEMALE.avi=1.000=0=0=1=====,
99999=-nosongbg-=1.000=0=0=0 // don't automatically add -songbackground-
;
#KEYSOUNDS:;
#ATTACKS:;

//---------------dance-single - ----------------
#NOTES:
     dance-single:
     :
     Beginner:
     2:
     0.109308,0.141001,0.023665,0.102546,0.000000,81.000000,3.000000,13.000000,0.000000,0.000000,0.000000,0.109308,0.141001,0.023665,0.102546,0.000000,81.000000,3.000000,13.000000,0.000000,0.000000,0.000000:
// measure 0
0000
0000
0000
0000
,  // measure 1
0000
0000
0000
0000
,  // measure 2
0000
0000
0000
0000
,  // measure 3
0000
0000
0000
0000
,  // measure 4
2000
0000
0000
3000
,  // measure 5
1000
0000
0000
0000
,  // measure 6
0002
0000
0000
0003
,  // measure 7
0001
0000
0000
0000
,  // measure 8
0010
0000
0000
0000
,  // measure 9
0010
0000
0000
0000
,  // measure 10
0100
0000
0000
0000
,  // measure 11
0100
0000
0000
0000
,  // measure 12
1000
0000
0000
0000
,  // measure 13
1000
0000
0000
0000
,  // measure 14
0001
0000
0000
0000
,  // measure 15
0001
0000
0000
0000
,  // measure 16
1000
0000
0000
0000
,  // measure 17
0001
0000
0000
0000
,  // measure 18
0001
0000
0000
0000
,  // measure 19
1000
0000
0000
0000
,  // measure 20
0010
0000
0000
0000
,  // measure 21
0100
0000
0000
0000
,  // measure 22
0100
0000
0000
0000
,  // measure 23
0010
0000
0000
0000
,  // measure 24
2000
0000
0000
0000
,  // measure 25
0000
0000
0000
3000
,  // measure 26
0002
0000
0000
0000
,  // measure 27
0000
0000
0000
0003
,  // measure 28
0020
0000
0000
0000
,  // measure 29
0000
0000
0000
0030
,  // measure 30
0200
0000
0000
0000
,  // measure 31
0000
0000
0000
0300
,  // measure 32
0100
0000
0000
0000
,  // measure 33
0100
0000
0000
0000
,  // measure 34
0100
0000
0000
0000
,  // measure 35
0100
0100
0100
0000
,  // measure 36
0010
0000
0000
0000
,  // measure 37
0010
0000
0000
0000
,  // measure 38
0010
0000
0000
0000
,  // measure 39
0010
0010
0010
0000
,  // measure 40
0110
0000
0000
0000
,  // measure 41
1000
0000
0000
0000
,  // measure 42
1001
0000
0000
0000
,  // measure 43
0001
0000
0000
0000
,  // measure 44
1001
0000
0000
0000
,  // measure 45
0001
0000
0000
0000
,  // measure 46
1000
0000
0000
0000
,  // measure 47
0100
0000
0000
0000
,  // measure 48
0020
0000
0000
0030
,  // measure 49
0000
0010
0000
0000
,  // measure 50
0010
0000
0010
0000
,  // measure 51
0100
0000
0100
0000
,  // measure 52
0200
0000
0000
0300
,  // measure 53
0000
0200
0000
0300
,  // measure 54
0100
0000
0100
0000
,  // measure 55
0010
0000
0010
0000
,  // measure 56
0002
0000
0000
0003
,  // measure 57
0001
0001
0001
0000
,  // measure 58
2000
0000
0000
3000
,  // measure 59
1000
1000
1000
0000
,  // measure 60
0020
0000
0000
0030
,  // measure 61
0010
0010
0010
0000
,  // measure 62
0200
0000
0000
0300
,  // measure 63
0100
0100
0100
0000
,  // measure 64
0100
0000
0000
0000
,  // measure 65
1000
0000
0000
0000
,  // measure 66
0001
0000
0000
0000
,  // measure 67
0010
0000
0000
0000
,  // measure 68
0010
0000
0000
0000
,  // measure 69
1000
0000
0000
0000
,  // measure 70
0001
0000
0000
0000
,  // measure 71
0100
0000
0100
0000
;

//---------------dance-single - ----------------
#NOTES:
     dance-single:
     :
     Easy:
     4:
     0.167905,0.224813,0.047329,0.126211,0.000000,127.000000,6.000000,16.000000,0.000000,0.000000,0.000000,0.167905,0.224813,0.047329,0.126211,0.000000,127.000000,6.000000,16.000000,0.000000,0.000000,0.000000:
0000
0000
0000
0000
,
0000
0000
0000
0000
,
0000
0000
0000
0000
,
0000
0000
0000
0000
,
2000
0000
0000
3000
,
0200
0000
0000
0300
,
0020
0000
0000
0030
,
0002
0000
0000
0003
,
0001
0000
0001
0000
,
1000
0000
1000
0000
,
0010
0000
0010
0000
,
0100
0000
0100
0000
,
0010
0000
0010
0000
,
1000
0000
1000
0000
,
0001
0000
0001
0000
,
0010
0000
0010
0000
,
0001
0000
0010
0000
,
0100
0000
1000
0000
,
0001
0000
0010
0000
,
0100
0000
1000
0000
,
0001
0000
0100
0000
,
0010
0000
1000
0000
,
0001
0000
0100
0000
,
0010
0000
1000
0000
,
2000
0000
0000
3000
,
0002
0000
0000
0003
,
1000
1000
0001
0000
,
0001
0001
1000
0000
,
0002
0000
0000
0003
,
2000
0000
0000
3000
,
1000
1000
0001
0001
,
1000
0001
1000
0000
,
0001
0000
0001
0000
,
0001
0000
0001
0000
,
1000
0000
1000
0000
,
1000
0000
1000
0000
,
0100
0000
0100
0000
,
0100
0000
0100
0000
,
0010
0000
0010
0000
,
0010
0000
0010
0000
,
0001
0000
0001
0000
,
0002
0000
0000
0003
,
1000
0000
1000
0000
,
2000
0000
0000
3000
,
0010
0000
0010
0000
,
0020
0000
0000
0030
,
0100
0000
0100
0000
,
0200
0000
0000
0300
,
0010
0010
0000
0000
,
0000
0010
0000
0000
,
0010
0000
1000
0000
,
0100
0000
0001
0000
,
0010
0010
0000
0000
,
0000
0010
0000
0000
,
0010
0000
0001
0000
,
0100
0000
1000
0000
,
0020
0000
0000
0000
,
0100
0100
0130
0000
,
0200
0000
0000
0300
,
0110
0110
0110
0000
,
2000
0000
0000
0000
,
0001
0001
3001
0000
,
0002
0000
0000
0003
,
1001
1001
1001
0000
,
1000
0000
0001
0000
,
1000
0000
0001
0000
,
0100
0100
0000
0000
,
0010
0010
0000
0000
,
0100
0000
0010
0000
,
0100
0000
0010
0000
,
1000
1000
0000
0000
,
0001
0001
0000
0000
;

//---------------dance-single - ----------------
#NOTES:
     dance-single:
     :
     Hard:
     11:
     0.507097,0.539551,0.141987,0.197204,0.098602,407.000000,18.000000,25.000000,0.000000,0.000000,0.000000,0.507097,0.539551,0.141987,0.197204,0.098602,407.000000,18.000000,25.000000,0.000000,0.000000,0.000000:
0000
0000
0000
0000
,
0000
0000
0000
0000
,
0000
0000
0000
0000
,
0000
0000
0000
0000
,
2000
0000
3100
0010
0001
0010
0100
1000
,
2000
0000
3010
0100
0001
1000
0100
0000
,
0020
0000
0130
0010
0001
1000
0100
1000
,
0010
0100
0002
0000
2003
0000
3001
0000
,
0000
0000
0000
0000
0001
0010
0100
1000
,
0001
0000
1000
0100
0010
0001
1000
0000
,
1001
0000
0001
1000
0010
0100
0001
0100
,
0010
0000
1000
0001
0100
0010
1000
0000
,
0000
0000
0010
1000
0100
0010
0001
0100
,
0100
0000
0010
1000
0001
0100
1000
0000
,
0000
0000
0100
0001
1000
0100
0010
0001
,
1000
0000
0100
0001
0100
0010
0001
0000
,
0000
0000
0000
0001
0010
0100
1000
0000
,
0000
0000
0000
1000
0100
0010
0001
0000
,
0000
0000
1000
0010
0001
0100
1000
0010
,
0100
0000
0010
1000
0100
0010
0001
0000
,
0000
0000
0001
0010
1000
0100
0001
0010
,
0100
0000
0010
0001
2000
0000
3002
0000
,
0003
0000
0001
0100
0010
0100
0001
1000
,
0001
1000
0001
0000
1000
0000
0100
0000
0010
0000
0100
0000
1000
0000
0000
0000
,
0001
0001
0010
0010
0100
1000
0100
0000
,
1000
1000
0100
0100
0010
0001
0010
0000
,
0010
0010
0100
0100
1000
0001
1000
0000
,
0100
0100
0010
0010
0001
1000
0001
0000
,
0001
0000
0100
0000
0010
1000
0100
0000
,
1000
0000
0100
0000
0010
0001
0100
0000
,
0001
1000
0001
1000
0001
1000
0100
1000
0100
1000
0100
1000
,
0200
0000
0310
0000
,
0012
0000
0103
0010
1000
0001
1000
0100
,
2100
0000
3010
1000
0100
0010
0001
0000
,
0102
0000
0103
0010
1000
0001
1000
0010
,
0100
0001
2000
0000
3002
0000
0023
0000
,
0032
0000
0013
0100
1000
0010
1000
0100
,
2100
0000
3010
0100
0001
0010
0100
0000
,
2100
0000
3010
0100
0001
0010
0001
1000
,
0001
0000
0000
0001
0000
0000
1000
0000
0000
1000
0000
0000
0001
0000
0010
0000
0100
0000
1000
0000
0001
0000
0010
0000
,
0100
1000
0001
0000
0010
0200
0000
0000
,
1000
0000
0000
0001
0000
0000
1300
0000
,
0101
0000
1000
1000
0000
0000
0010
0010
,
0000
0000
0100
0100
0000
0000
0101
0000
,
0000
0000
1000
0000
0001
0020
0000
0000
,
0001
0000
0000
0100
0000
0000
0031
0000
,
0010
0000
0001
0001
0000
0000
1000
1000
,
2000
0000
3000
0000
,
1000
0010
1000
0010
1000
0010
0000
0000
0000
0000
0000
0000
,
0000
0000
0000
0001
0100
0001
0000
0000
0000
0000
0000
0000
,
0100
0100
0010
0010
1000
0100
0010
0001
,
1000
1000
0001
0001
1000
0001
0100
0010
,
1000
0001
1000
0001
1000
0001
0000
0000
0000
0000
0000
0000
,
0000
0000
0000
0010
0001
0010
0000
0000
0000
0000
0000
0000
,
0010
0010
0100
0100
1000
0010
0100
0001
,
1000
1000
0001
0001
1000
0100
0010
0001
,
0010
0000
0011
0000
0101
0000
0010
1000
,
1100
1010
1001
0000
,
1000
0100
0010
0100
1000
0010
0100
0001
,
0010
0100
0010
0001
0100
0000
0001
0010
,
0100
0000
1100
0000
1001
0000
1000
0010
,
0101
0011
1001
1000
,
0010
1000
0100
0010
0100
1000
0010
0100
,
0001
0010
0100
0010
0001
0010
0100
1000
,
0001
1000
0200
0000
0310
0001
1000
0010
,
0100
0001
0200
0000
0310
1000
0001
0010
,
0100
1000
0010
1000
0100
0010
0001
1000
,
0100
0001
0100
1000
0010
0001
0010
1000
,
0010
0100
0002
0000
0013
0100
1000
0010
,
1000
0100
0020
0000
0031
0010
0100
1000
,
0001
1000
0001
1000
0100
0010
0001
1000
,
0010
0100
0010
1000
0200
0000
0000
0000
,
0300
0000
0000
0000
;

//---------------dance-single - ----------------
#NOTES:
     dance-single:
     :
     Medium:
     7:
     0.324542,0.340769,0.220869,0.149875,0.000000,241.000000,28.000000,19.000000,0.000000,0.000000,0.000000,0.324542,0.340769,0.220869,0.149875,0.000000,241.000000,28.000000,19.000000,0.000000,0.000000,0.000000:
0000
0000
0000
0000
,
0000
0000
0000
0000
,
0000
0000
0000
0000
,
0000
0000
0000
0000
,
1000
0100
0010
0001
,
1000
0100
1000
0000
,
0001
0100
0010
1000
,
0010
1000
0010
0000
,
2000
0000
3002
0000
,
0103
0010
1000
0001
,
2000
0000
3002
0000
,
1003
0100
0010
0001
,
0020
0000
0032
0000
,
0013
0100
1000
0100
,
2000
0000
3200
0000
,
1300
0010
0100
0001
,
0101
0000
0000
0000
0100
0100
0100
0000
,
0010
0000
0000
0000
0010
0010
0010
0000
,
1010
0000
0000
0000
1000
1000
1000
0000
,
0001
0000
0000
0000
0001
0001
0001
0000
,
1001
0100
0010
1000
,
0100
0010
0001
1000
,
0001
0100
0010
1000
,
0001
1000
0001
0000
1000
0001
1000
0000
,
1100
0101
1100
0000
,
0101
1100
0101
0000
,
1001
0110
1001
0000
,
1001
0110
1001
0000
,
1100
1100
1010
0000
,
0101
0101
0011
0000
,
0001
0010
0100
1000
,
0002
0000
1003
0000
,
1010
0000
0100
0000
0001
0010
0100
0000
,
1000
0000
0010
0000
1000
0100
0010
0000
,
0001
0000
1000
0000
0001
1000
0010
0000
,
0100
0001
0100
0010
,
1000
0000
0001
0000
0010
0100
1000
0000
,
0001
0000
0010
0000
0100
0010
0001
0000
,
1000
0000
0100
0000
1000
0100
1000
0000
,
0001
0000
0010
0000
0100
0010
0001
0000
,
1000
0000
0001
0000
,
1001
0000
0000
0001
0000
0000
1000
0000
,
0001
0010
0100
1000
,
0001
0010
0100
1000
,
0001
0000
1000
0000
,
1001
0000
0000
1000
0000
0000
0001
0000
,
1000
0010
0100
0001
,
0200
0000
0310
0000
,
0220
0000
0000
0330
,
0000
0110
0000
0000
,
0010
1000
0100
0001
,
0010
1000
0100
0010
,
0022
0000
0000
0033
,
0000
0011
0000
0000
,
0001
0010
0100
1000
,
0010
0001
0100
1000
,
0010
0100
0001
0100
,
0010
1000
0100
0000
1000
0000
0000
0000
,
1000
0100
0010
0001
,
0100
0001
0010
0000
0001
0000
0000
0000
,
0001
0000
0010
1000
,
0001
0100
0010
0000
1000
0000
0000
0000
,
0001
1000
0100
0010
,
0001
0010
0100
0000
1000
0000
0000
0000
,
0002
0103
0001
0010
,
0200
1300
0010
1000
,
0100
0010
0001
0100
,
1000
0010
0001
0100
,
0010
0002
0103
0010
,
1000
0200
1300
0010
,
0100
0001
0100
0010
,
1000
0001
0020
0000
,
0030
0000
0000
0000
;
