#TITLE:天国と地獄;
#SUBTITLE:;
#ARTIST:Mutsuhiko Izumi;
#TITLETRANSLIT:TENGOKU TO JIGOKU;
#SUBTITLETRANSLIT:;
#ARTISTTRANSLIT:;
#CREDIT:Chewi☆;
#BANNER:TENGOKU TO JIGOKU.png;
#BACKGROUND:TENGOKU TO JIGOKU-bg.png;
#LYRICSPATH:;
#CDTITLE:;
#MUSIC:TENGOKU TO JIGOKU.mp3;
#OFFSET:-0.485;
#SAMPLESTART:62.642;
#SAMPLELENGTH:15.000;
#SELECTABLE:YES;
#BPMS:0.000=195.000;
#STOPS:;
#BGCHANGES:;

//---------------dance-single - Chewi----------------
#NOTES:
     dance-single:
     Chewi:
     Beginner:
     4:
     0.255,0.305,0.327,0.019,0.000: // measure 1
0000
0000
0000
0000
,  // measure 2
0000
0000
0000
0000
,  // measure 3
0000
0000
0000
0000
,  // measure 4
0000
0000
0000
0000
,  // measure 5
1000
0000
0001
0000
,  // measure 6
0100
0000
0010
0000
,  // measure 7
0010
0000
0100
0000
,  // measure 8
0010
0000
1000
0000
,  // measure 9
1000
0000
0100
0000
,  // measure 10
0010
0000
0001
0000
,  // measure 11
0001
0000
1000
0000
,  // measure 12
0100
0000
0100
0000
,  // measure 13
0110
0000
0110
0000
,  // measure 14
0010
0000
1000
0000
,  // measure 15
1001
0000
1001
0000
,  // measure 16
1000
0000
0100
0000
,  // measure 17
0110
0000
0110
0000
,  // measure 18
0100
0000
1000
0000
,  // measure 19
1001
0000
1001
0000
,  // measure 20
1000
0000
0010
0000
,  // measure 21
1000
0000
1000
0000
,  // measure 22
0010
0000
0100
0000
,  // measure 23
0100
0000
0010
0000
,  // measure 24
1000
0000
1001
0000
,  // measure 25
1000
0000
1001
0000
,  // measure 26
0100
0000
0110
0000
,  // measure 27
0100
0000
1000
0000
,  // measure 28
0010
0000
1001
0000
,  // measure 29
0010
0000
1001
0000
,  // measure 30
0010
0000
1001
0000
,  // measure 31
0010
0000
0001
0000
,  // measure 32
0100
0000
1001
0000
,  // measure 33
0010
0000
1001
0000
,  // measure 34
0010
0000
1001
0000
,  // measure 35
0100
0000
1000
0000
,  // measure 36
1000
0000
0110
0000
,  // measure 37
0010
0000
1001
0000
,  // measure 38
0010
0000
1001
0000
,  // measure 39
0010
0000
0001
0000
,  // measure 40
0100
0000
0001
0000
,  // measure 41
0100
0000
0001
0000
,  // measure 42
0100
0000
0010
0000
,  // measure 43
0001
0000
0010
0000
,  // measure 44
0001
0000
0001
0000
,  // measure 45
0100
0000
0001
0000
,  // measure 46
0100
0000
0010
0000
,  // measure 47
0001
0000
0010
0000
,  // measure 48
0001
0000
0001
0000
,  // measure 49
0001
0000
0010
0000
,  // measure 50
0010
0000
0100
0000
,  // measure 51
0100
0000
1001
0000
,  // measure 52
1000
0000
1001
0000
,  // measure 53
0100
0000
0110
0000
,  // measure 54
0100
0000
1000
0000
,  // measure 55
0010
0000
1001
0000
,  // measure 56
0010
0000
1001
0000
,  // measure 57
0010
0000
1001
0000
,  // measure 58
0010
0000
0001
0000
,  // measure 59
0100
0000
1001
0000
,  // measure 60
0010
0000
1001
0000
,  // measure 61
0010
0000
1001
0000
,  // measure 62
0100
0000
1000
0000
,  // measure 63
1000
0000
0110
0000
,  // measure 64
0010
0000
1001
0000
,  // measure 65
0010
0000
1001
0000
,  // measure 66
0010
0000
0001
0000
,  // measure 67
0100
0000
0001
0000
,  // measure 68
0100
0000
0001
0000
,  // measure 69
0100
0000
0010
0000
,  // measure 70
0001
0000
0010
0000
,  // measure 71
0001
0000
0001
0000
,  // measure 72
0100
0000
0001
0000
,  // measure 73
0100
0000
0010
0000
,  // measure 74
0001
0000
0010
0000
,  // measure 75
0010
0000
0100
0000
,  // measure 76
0100
0000
0001
0000
,  // measure 77
0001
0000
1000
0000
,  // measure 78
1000
0000
0001
0000
,  // measure 79
0001
0000
1001
0000
,  // measure 80
1000
0000
1001
0000
,  // measure 81
0001
0000
2002
0000
,  // measure 82
0000
0000
3003
0000
;

//---------------dance-single - Chewi----------------
#NOTES:
     dance-single:
     Chewi:
     Easy:
     8:
     0.483,0.533,0.570,0.056,0.000: // measure 1
0000
0000
0000
0000
,  // measure 2
0000
0000
0000
0000
,  // measure 3
0000
0000
0000
0000
,  // measure 4
0000
0000
0000
0000
,  // measure 5
1000
1000
0001
0001
,  // measure 6
0100
0100
0020
0130
,  // measure 7
0010
0010
0100
0100
,  // measure 8
0010
0010
2000
3010
,  // measure 9
1000
1000
0100
0100
,  // measure 10
0010
0010
0002
0013
,  // measure 11
0001
0001
1000
1000
,  // measure 12
0100
0100
0020
0130
,  // measure 13
0110
0110
0110
0110
,  // measure 14
0010
0100
1000
0001
,  // measure 15
1001
1001
1001
1001
,  // measure 16
1000
0001
0100
0010
,  // measure 17
0110
0110
0110
0110
,  // measure 18
0100
0010
1000
0001
,  // measure 19
1001
1001
1001
1001
,  // measure 20
1000
0100
0010
0100
,  // measure 21
1000
0010
1000
0100
,  // measure 22
0010
0001
0100
0010
,  // measure 23
0100
0001
0010
0100
,  // measure 24
1000
0001
1001
0000
,  // measure 25
1000
0001
1001
1001
,  // measure 26
0100
0010
0110
0110
,  // measure 27
0100
0010
1000
0100
,  // measure 28
0010
0001
1001
0000
,  // measure 29
0010
1000
1001
1001
,  // measure 30
0010
0001
1001
1001
,  // measure 31
0010
0100
0001
1000
,  // measure 32
0100
0010
1001
0000
,  // measure 33
0010
0100
1001
1001
,  // measure 34
0010
0100
1001
1001
,  // measure 35
0100
0010
1000
0001
,  // measure 36
1000
0100
0110
0000
,  // measure 37
0010
0001
1001
1001
,  // measure 38
0010
0001
1001
1001
,  // measure 39
0010
0100
0001
1000
,  // measure 40
0100
0010
0001
0010
,  // measure 41
0100
1000
0001
0010
,  // measure 42
0100
1000
0010
0100
,  // measure 43
0001
1000
0010
0100
,  // measure 44
0001
1000
0001
0010
,  // measure 45
0100
1000
0001
0010
,  // measure 46
0100
1000
0010
0100
,  // measure 47
0001
1000
0010
0100
,  // measure 48
0001
1000
0001
0001
,  // measure 49
0001
0001
0010
0010
,  // measure 50
0010
0010
0100
0100
,  // measure 51
0100
0100
1001
0000
,  // measure 52
1000
0001
1001
1001
,  // measure 53
0100
0010
0110
0110
,  // measure 54
0100
0010
1000
0100
,  // measure 55
0010
0001
1001
0000
,  // measure 56
0010
1000
1001
1001
,  // measure 57
0010
0001
1001
1001
,  // measure 58
0010
0100
0001
1000
,  // measure 59
0100
0010
1001
0000
,  // measure 60
0010
0100
1001
1001
,  // measure 61
0010
0100
1001
1001
,  // measure 62
0100
0010
1000
0001
,  // measure 63
1000
0100
0110
0000
,  // measure 64
0010
0001
1001
1001
,  // measure 65
0010
0001
1001
1001
,  // measure 66
0010
0100
0001
1000
,  // measure 67
0100
0010
0001
0010
,  // measure 68
0100
1000
0001
0010
,  // measure 69
0100
1000
0010
0100
,  // measure 70
0001
1000
0010
0100
,  // measure 71
0001
1000
0001
0010
,  // measure 72
0100
1000
0001
0010
,  // measure 73
0100
1000
0010
0100
,  // measure 74
0001
1000
0010
0010
,  // measure 75
0010
0010
0100
0100
,  // measure 76
0100
0100
0001
0001
,  // measure 77
0001
0001
1000
1000
,  // measure 78
1000
1000
0001
0010
,  // measure 79
0001
0010
1001
0000
,  // measure 80
1001
0000
1001
0000
,  // measure 81
1001
0000
2002
0000
,  // measure 82
0000
0000
3003
0000
;

//---------------dance-single - Chewi----------------
#NOTES:
     dance-single:
     Chewi:
     Medium:
     10:
     0.553,0.609,0.318,0.206,0.000: // measure 1
0000
0000
0000
0000
,  // measure 2
0000
0000
0000
0000
,  // measure 3
0000
0000
0000
0000
,  // measure 4
0000
0000
0000
0000
,  // measure 5
2000
0000
3200
0000
1300
0010
0100
0000
,  // measure 6
0002
0000
0023
0000
0031
0100
0010
0000
,  // measure 7
2000
3002
0023
0230
,  // measure 8
1300
0100
1000
0000
0001
0100
0001
0000
,  // measure 9
2000
0000
3002
0000
1003
0010
0100
0000
,  // measure 10
0002
0000
0203
0000
0310
0100
0001
0000
,  // measure 11
0002
0023
0230
2300
,  // measure 12
3001
0010
0001
0000
1000
0100
1000
0000
,  // measure 13
2001
0100
0010
3010
,  // measure 14
0010
0100
0010
0000
0100
0010
0100
0000
,  // measure 15
0102
0010
0100
0013
,  // measure 16
0010
0100
1000
0000
0010
0100
0001
0000
,  // measure 17
1002
1000
0100
0103
,  // measure 18
1000
0010
0100
0000
0001
0100
0001
0000
,  // measure 19
0102
0010
1000
0013
,  // measure 20
0001
0010
0001
0000
1000
0100
1000
0000
,  // measure 21
0001
0000
1000
0000
0010
0100
0001
0000
,  // measure 22
0001
0010
0100
0100
,  // measure 23
1000
1000
0010
0010
,  // measure 24
0100
0100
1001
0000
,  // measure 25
1000
0010
1000
0000
0001
0000
1000
0000
,  // measure 26
0001
0010
0001
0000
0010
0000
0100
0000
,  // measure 27
1000
0100
1000
0000
0100
0000
0100
0000
,  // measure 28
0010
0010
0011
0000
,  // measure 29
0001
0010
0001
0000
0010
0000
0010
0000
,  // measure 30
0100
1000
0100
0000
1000
0000
1000
0000
,  // measure 31
0001
1000
0001
0000
1000
0010
0100
0000
,  // measure 32
0001
0100
0101
0000
,  // measure 33
0001
0100
0001
0000
0010
0000
0010
0000
,  // measure 34
0100
1000
0010
0000
1000
0000
1000
0000
,  // measure 35
0010
0100
0001
0000
1000
0100
1000
0000
,  // measure 36
0001
0010
0001
0000
0011
0000
0000
0000
,  // measure 37
0001
0010
0100
0000
1000
0000
0010
0000
,  // measure 38
1000
0001
0100
0000
0010
0000
0100
0000
,  // measure 39
0001
0010
0100
0000
1000
0100
1000
0000
,  // measure 40
1001
1100
0001
0001
,  // measure 41
0010
0100
1000
0000
0010
0100
0001
0000
,  // measure 42
0101
1010
1000
1000
,  // measure 43
0010
0010
0100
0100
,  // measure 44
0001
0001
1000
1000
,  // measure 45
0001
0010
0100
0000
1000
0100
0010
0000
,  // measure 46
0001
1000
0100
0000
1000
0000
1000
0000
,  // measure 47
0001
0001
0100
0100
,  // measure 48
0010
0010
1010
1000
,  // measure 49
0101
0001
1001
1000
,  // measure 50
1001
0001
0010
0010
,  // measure 51
0100
0100
1001
0000
,  // measure 52
0001
0100
0001
0000
1000
0000
0001
0000
,  // measure 53
1000
0100
1000
0000
0100
0000
0010
0000
,  // measure 54
0001
0010
0001
0000
0010
0000
0010
0000
,  // measure 55
0100
0100
1100
0000
,  // measure 56
1000
0100
1000
0000
0100
0000
0100
0000
,  // measure 57
0010
0001
0010
0000
0001
0000
0001
0000
,  // measure 58
1000
0001
1000
0000
0001
0100
0010
0000
,  // measure 59
1000
0010
1010
0000
,  // measure 60
1000
0010
1000
0000
0100
0000
0100
0000
,  // measure 61
0010
0001
0100
0000
0001
0000
0001
0000
,  // measure 62
0100
0010
1000
0000
0001
0010
0001
0000
,  // measure 63
1000
0100
1000
0000
1100
0000
0000
0000
,  // measure 64
1000
0100
0010
0000
0001
0000
0100
0000
,  // measure 65
0001
1000
0010
0000
0100
0000
0010
0000
,  // measure 66
1000
0100
0010
0000
0001
0010
0001
0000
,  // measure 67
1001
0011
1000
1000
,  // measure 68
0100
0010
0001
0000
0100
0010
1000
0000
,  // measure 69
1010
0101
0001
0001
,  // measure 70
0100
0100
0010
0010
,  // measure 71
1000
1000
0100
0100
,  // measure 72
0010
0000
0010
0000
0001
0010
0100
0000
,  // measure 73
1000
0001
0010
0000
0001
0100
0001
0000
,  // measure 74
1000
0010
1000
0000
0010
0000
0010
0000
,  // measure 75
0100
0100
0101
0001
,  // measure 76
1010
1000
0001
0001
,  // measure 77
1000
1000
1100
0100
,  // measure 78
0011
0000
0010
0000
0100
0010
0100
0000
,  // measure 79
0010
0100
0010
0000
0011
0000
0000
0000
,  // measure 80
0011
0000
1100
0000
,  // measure 81
1100
0000
2002
0000
,  // measure 82
0000
3003
1001
0000
;

//---------------dance-single - Chewi----------------
#NOTES:
     dance-single:
     Chewi:
     Hard:
     13:
     0.758,0.685,0.822,0.056,0.037: // measure 1
0000
0000
0000
0000
,  // measure 2
0000
0000
0000
0000
,  // measure 3
0000
0000
0000
0000
,  // measure 4
0000
0000
0000
0000
,  // measure 5
1000
0100
1000
0000
0001
0100
0001
0000
,  // measure 6
1000
0100
1000
0000
0101
0000
1100
0000
,  // measure 7
0001
0100
0001
0000
1000
0010
1000
0000
,  // measure 8
0001
0010
0001
0000
1000
0100
1000
0000
,  // measure 9
0001
0010
0001
0000
1000
0010
1000
0000
,  // measure 10
0001
0010
0001
0000
0011
0000
1010
0000
,  // measure 11
1000
0100
1000
0000
0001
0010
0001
0000
,  // measure 12
1000
0010
1000
0000
0001
0100
0001
0000
,  // measure 13
1001
0110
1001
0110
,  // measure 14
0100
0010
1000
0001
0010
0100
1000
0000
,  // measure 15
1010
1100
1001
0101
,  // measure 16
1000
0100
0010
0001
0100
0010
0100
0000
,  // measure 17
0110
1010
1001
0011
,  // measure 18
0010
0100
0010
0001
0010
0100
1000
0000
,  // measure 19
1010
0101
0011
1100
,  // measure 20
0001
0010
0100
1000
0020
0000
1030
0100
,  // measure 21
0002
0000
0013
1000
0200
0000
0301
0010
,  // measure 22
2000
0000
0000
0000
3100
0000
0010
0000
0001
0000
0000
0001
1000
0000
0000
1000
,  // measure 23
0100
0000
0000
0100
0010
0000
0000
0010
0001
0000
0000
0001
0010
0000
0000
0010
,  // measure 24
0100
0000
0000
0100
1000
0000
0000
1000
0001
0000
0000
0000
0000
0000
0000
0000
,  // measure 25
0100
0010
1000
0001
0101
0000
1010
0000
,  // measure 26
0010
1000
0100
0010
0011
0000
1100
0000
,  // measure 27
0001
0100
0010
1000
0001
0010
0100
1000
,  // measure 28
0010
0100
0001
0010
0011
0000
0000
0000
,  // measure 29
1000
0001
0010
0100
1100
0000
1010
0000
,  // measure 30
0100
0001
0010
0100
1100
0000
0101
0000
,  // measure 31
0100
0010
1000
0001
0010
0100
1000
0010
,  // measure 32
0100
1001
0110
0000
,  // measure 33
0001
1000
0010
0100
0101
0000
0011
0000
,  // measure 34
0100
1000
0010
0100
0101
0000
1100
0000
,  // measure 35
0100
0010
0001
1000
0010
0100
0001
1000
,  // measure 36
0100
0010
0001
1000
1100
0000
0000
0000
,  // measure 37
0010
0001
0010
0100
1100
0000
0011
0000
,  // measure 38
0001
0010
1000
0001
0101
0000
1010
0000
,  // measure 39
0001
0100
1000
0010
1000
0100
0010
0001
,  // measure 40
0011
0000
1100
0000
0010
0100
0001
1000
,  // measure 41
0100
0010
0001
1000
0010
0100
0001
0010
,  // measure 42
0100
1000
0001
0000
0100
0010
0100
0010
,  // measure 43
1000
0001
1000
0001
0100
0010
1000
0100
,  // measure 44
0010
0001
1000
0000
0001
1000
0100
0010
,  // measure 45
0001
0100
0010
1000
0100
0010
0001
0100
,  // measure 46
0010
1000
0010
0000
0010
0100
0010
0100
,  // measure 47
0001
1000
0001
1000
0010
0100
0001
0010
,  // measure 48
0100
1000
0001
0010
0100
0100
1000
1000
,  // measure 49
0010
0010
0100
0100
0001
0001
1000
1000
,  // measure 50
0100
0100
0010
0010
0001
0010
0100
1000
,  // measure 51
1000
0010
0100
0001
1000
0000
0000
0000
,  // measure 52
0010
0100
0001
1000
1010
0000
0101
0000
,  // measure 53
0100
0001
0010
0100
1100
0000
0011
0000
,  // measure 54
1000
0010
0100
0001
1000
0100
0010
0001
,  // measure 55
0100
0010
1000
0100
1100
0000
0000
0000
,  // measure 56
0001
1000
0100
0010
0011
0000
0101
0000
,  // measure 57
0010
1000
0100
0010
0011
0000
1010
0000
,  // measure 58
0010
0100
0001
1000
0100
0010
0001
0100
,  // measure 59
0010
1001
0110
0000
,  // measure 60
1000
0001
0100
0010
1010
0000
1100
0000
,  // measure 61
0010
0001
0100
0010
1010
0000
0011
0000
,  // measure 62
0010
0100
1000
0001
0100
0010
1000
0001
,  // measure 63
0010
0100
1000
0001
0011
0000
0000
0000
,  // measure 64
0100
1000
0100
0010
0011
0000
1100
0000
,  // measure 65
1000
0100
0001
1000
1010
0000
0101
0000
,  // measure 66
1000
0010
0001
0100
0010
1000
0100
1000
,  // measure 67
0010
1000
0100
0000
1010
0000
0101
0000
,  // measure 68
0011
0000
1100
0000
0001
0010
0001
0100
,  // measure 69
0001
0010
0100
0000
1100
0000
1001
0000
,  // measure 70
0101
0000
1001
0000
1000
0010
0001
0010
,  // measure 71
1000
0010
0001
0010
1000
0100
0001
0100
,  // measure 72
1000
0100
0001
0100
1000
0100
1000
0100
,  // measure 73
1000
0010
1000
0010
0100
0001
0100
0001
,  // measure 74
0010
0001
0010
0001
0011
0000
1100
0000
,  // measure 75
0101
0000
1100
0000
0001
1000
0001
1000
,  // measure 76
0010
0100
0010
0100
0110
0000
0110
0000
,  // measure 77
0101
0000
0101
0000
0001
0010
0001
0010
,  // measure 78
0001
0100
0001
0100
0101
0000
1100
0000
,  // measure 79
1010
0011
0101
0000
,  // measure 80
0101
0000
1010
0000
,  // measure 81
1010
0000
2002
0000
,  // measure 82
0000
3003
1001
0000
;
