#TITLE:Switchback;
#SUBTITLE:;
#ARTIST:Celldweller;
#TITLETRANSLIT:;
#SUBTITLETRANSLIT:;
#ARTISTTRANSLIT:;
#GENRE:;
#CREDIT:xRGTMx;
#MENUCOLOR:;
#METERTYPE:DDR;
#BANNER:Switchback.png;
#BACKGROUND:Switchback-bg.png;
#LYRICSPATH:;
#CDTITLE:;
#MUSIC:Switchback.mp3;
#OFFSET:-0.040;
#SAMPLESTART:8.280;
#SAMPLELENGTH:12.000;
#SELECTABLE:YES;
#LISTSORT:;
#BPMS:0.000=112.000;
#STOPS:;
#BGCHANGES:;
#ATTACKS:;

//---------------dance-single - xRGTMx----------------
#NOTES:
     dance-single:
     xRGTMx:
     Challenge:
     12:
     0.573,0.512,0.380,0.148,0.186: // measure 1
0000
0000
0010
1000
0010
1000
0001
1000
,  // measure 2
0001
1000
0001
0010
0001
0010
0001
1000
,  // measure 3
0001
1000
0100
1000
0100
1000
0100
0010
,  // measure 4
0100
0000
0010
0000
0001
0010
0001
0010
0001
1000
0001
1000
0100
0000
2000
0000
,  // measure 5
3002
0000
0000
0003
1000
0000
0010
0000
1010
0000
0000
0000
1000
0000
0001
0000
,  // measure 6
1001
0000
0001
0010
0011
0000
0001
1000
,  // measure 7
1001
0000
1000
0100
1010
0000
0001
0100
,  // measure 8
0011
0000
1000
0010
1100
0000
0001
0010
,  // measure 9
0101
0000
0010
1000
0110
0001
1000
0001
,  // measure 10
0110
0000
0010
0001
0110
1000
0001
1000
,  // measure 11
0110
0000
1000
0100
0011
1000
0100
1000
,  // measure 12
0011
0000
0001
0100
1010
0001
0100
0001
,  // measure 13
1010
0000
0000
0000
0010
0000
1000
0000
0100
0000
0010
0100
0000
0100
0010
0000
,  // measure 14
0001
0000
1000
0001
1000
0000
0100
0000
0010
0000
0100
1000
0000
1000
0001
0000
,  // measure 15
0100
0000
0010
0000
0100
0000
0001
0000
0010
0000
0100
1000
0010
1000
0010
0000
,  // measure 16
0100
0001
0100
0000
0001
0000
1000
0000
0200
0000
2000
0000
0000
0000
0000
0000
,  // measure 17
3300
0000
0000
0000
0010
0000
1000
0000
0100
0000
1000
0001
1000
0000
0001
0000
,  // measure 18
0100
0000
0010
0000
1000
0000
0100
0000
0010
0000
0100
1000
0100
0000
1000
0000
,  // measure 19
0001
0000
0100
0000
0010
0000
1000
0000
0100
0000
0001
0100
1000
0000
0001
0000
,  // measure 20
0100
0000
0010
0000
1000
0000
0001
0000
0010
0000
1000
0010
0001
0000
0100
0000
,  // measure 21
0010
1000
1100
0000
1010
0000
0101
0000
,  // measure 22
0011
1100
0011
0101
,  // measure 23
1010
0000
1000
0001
1000
0001
1000
0001
,  // measure 24
1000
0000
0001
0000
0100
0010
0100
0010
0100
0010
1000
0100
0010
0000
0002
0000
,  // measure 25
2000
3003
1000
0010
1010
0000
1000
0001
,  // measure 26
1001
0000
0001
0010
0011
0000
0001
1000
,  // measure 27
1001
0000
1000
0100
1010
0000
0001
0100
,  // measure 28
0011
0000
1000
0010
1100
0000
0001
0010
,  // measure 29
0101
0000
0010
1000
0110
0001
1000
0001
,  // measure 30
0110
0000
0010
0001
0110
1000
0001
1000
,  // measure 31
0110
0000
1000
0100
0011
1000
0100
1000
,  // measure 32
0011
0000
0001
0100
1010
0001
0100
0001
,  // measure 33
1010
0000
0000
0000
0010
0000
1000
0000
0100
0000
0010
0000
0100
1000
0100
0000
,  // measure 34
1000
0001
1000
0000
0001
0000
0100
0000
0010
0000
1000
0000
0001
0010
0001
0000
,  // measure 35
1000
0100
1000
0000
0010
0000
0100
0000
0001
0000
1002
0000
0000
0000
1000
0000
,  // measure 36
1000
0000
1003
0000
1000
0000
0100
0000
0010
0000
0100
1000
0000
1000
0010
0000
,  // measure 37
0100
0000
0010
1000
0100
0000
0010
0000
0100
0000
1000
0000
0001
0000
1000
0000
,  // measure 38
0100
0000
0010
0001
0000
0001
0010
0000
0100
1000
0000
1000
0100
0010
0001
0010
,  // measure 39
0100
1000
0010
0100
0002
0000
1000
0000
1000
0000
0000
0000
0010
0000
0000
0000
,  // measure 40
0100
2003
0010
0100
,  // measure 41
0001
0000
3002
0100
0100
0000
0010
0000
,  // measure 42
1000
0000
0100
0000
1003
0000
0200
0320
,  // measure 43
0032
0023
0130
1000
0010
0100
0001
0010
,  // measure 44
0100
1000
0100
0001
0100
1000
0010
0001
,  // measure 45
0010
0100
0001
0010
1000
0010
0001
0100
,  // measure 46
1000
0100
0001
1000
0100
0001
1000
0010
,  // measure 47
0001
1000
0100
0000
0010
0000
0100
0000
,  // measure 48
0010
0001
1000
0001
,  // measure 49
1000
0000
0010
0010
0100
0100
0001
0001
,  // measure 50
1000
0000
1000
0000
0100
0010
0100
1000
0001
0100
1000
0100
0010
1000
0020
0000
,  // measure 51
0002
0033
0000
0000
0000
0000
0000
0000
;

//---------------dance-single - xRGTMx----------------
#NOTES:
     dance-single:
     xRGTMx:
     Hard:
     9:
     0.395,0.371,0.297,0.167,0.019: // measure 1
0000
0100
0100
1000
,  // measure 2
1000
0010
0010
0100
,  // measure 3
0100
0000
0001
0100
0001
0000
0010
0100
,  // measure 4
0010
0000
0010
0001
0100
0010
1000
0002
,  // measure 5
1000
1003
1010
1000
,  // measure 6
1001
0000
0001
0000
0011
0000
0010
0100
,  // measure 7
0110
0100
1100
1000
,  // measure 8
1001
0000
0001
0000
0101
0000
0100
0010
,  // measure 9
0110
1000
0011
0100
,  // measure 10
1010
0000
0001
0000
1100
0000
0010
0100
,  // measure 11
0110
1000
0110
0001
,  // measure 12
1100
0000
0010
0000
0101
0000
1000
0001
,  // measure 13
1001
0000
1000
0100
0001
0100
1000
0001
,  // measure 14
1000
0000
0001
0100
1000
0100
0001
1000
,  // measure 15
0001
0000
2000
0000
3200
0000
0310
0100
,  // measure 16
0010
0100
2000
0000
3002
0000
0203
0000
,  // measure 17
0320
0000
1030
0000
1010
0000
1000
0010
,  // measure 18
0100
0000
0001
0000
0011
0000
0001
0010
,  // measure 19
0100
0000
1000
0000
1001
0000
1000
0100
,  // measure 20
0001
0000
1000
0000
1001
0000
0001
0100
,  // measure 21
1000
0010
0010
0100
,  // measure 22
0100
0001
0001
1000
,  // measure 23
1000
0000
0010
0100
0010
0000
0100
0010
,  // measure 24
0100
0000
0001
0010
0100
0001
0100
0020
,  // measure 25
1000
0031
0101
1000
,  // measure 26
1100
0000
0001
0000
0011
0000
1000
0010
,  // measure 27
1010
0001
1100
0001
,  // measure 28
1010
0000
0001
0000
1100
0000
0001
1000
,  // measure 29
1010
0000
1000
0100
0010
0000
0100
0000
,  // measure 30
1100
0000
1000
0001
0100
1000
0100
0000
,  // measure 31
0001
0000
1000
0010
0100
0000
0001
0000
,  // measure 32
1100
0000
0001
0010
0100
1000
0001
0000
,  // measure 33
0110
0000
1000
0100
0010
0000
0100
0000
,  // measure 34
1100
0000
1000
0001
0100
1000
0100
0000
,  // measure 35
0001
0000
2000
0000
0000
0002
0000
0000
,  // measure 36
3000
0000
0000
0000
0103
0000
0000
0000
0100
0000
0000
0100
0000
0000
0100
0000
,  // measure 37
0010
0002
2000
0003
,  // measure 38
3001
0000
0001
1000
0000
0100
0000
0000
0010
0000
0000
0100
0000
0000
1000
0000
,  // measure 39
0010
0200
0001
0000
,  // measure 40
0001
0302
1000
0000
,  // measure 41
1000
2003
0010
0000
,  // measure 42
3020
0230
0000
0302
,  // measure 43
0000
0000
1003
0100
1000
0100
0010
0000
,  // measure 44
0100
0000
1000
0100
1000
0100
0001
0000
,  // measure 45
0100
0000
1000
0010
1000
0010
0100
0000
,  // measure 46
0010
0000
1000
0010
1000
0010
0001
0000
,  // measure 47
0010
1000
1000
0001
,  // measure 48
0001
0100
0100
0010
,  // measure 49
0010
0000
1000
0001
1000
0001
0100
0010
,  // measure 50
0100
0010
1000
0001
0100
0010
1000
0100
,  // measure 51
0010
0000
0000
0000
;

//---------------dance-single - xRGTMx----------------
#NOTES:
     dance-single:
     xRGTMx:
     Medium:
     5:
     0.278,0.278,0.186,0.167,0.000: // measure 1
0000
1000
1000
0001
,  // measure 2
0001
1000
1000
0001
,  // measure 3
0001
0100
0100
0010
,  // measure 4
0010
0110
1001
2000
,  // measure 5
3001
1000
1000
1000
,  // measure 6
1000
0100
0100
0100
,  // measure 7
0100
0001
0001
0001
,  // measure 8
0001
0010
0010
0010
,  // measure 9
0010
1000
1100
0100
,  // measure 10
0010
0001
0101
0100
,  // measure 11
0010
1000
1010
0010
,  // measure 12
0100
0001
0011
0010
,  // measure 13
0100
1000
1002
0000
,  // measure 14
1003
0001
2001
0000
,  // measure 15
3001
0100
0120
1000
,  // measure 16
1030
2000
0000
0000
,  // measure 17
0000
0000
3001
0000
0001
0000
0000
0100
,  // measure 18
0010
0000
1000
0000
1000
0000
0000
0100
,  // measure 19
0010
0000
0001
0000
0001
0000
0000
0010
,  // measure 20
0100
0000
1000
0000
1000
0000
0000
0010
,  // measure 21
0100
0001
0000
0001
,  // measure 22
0000
1000
0000
1000
,  // measure 23
0000
0100
0100
0100
,  // measure 24
0100
0110
0110
2001
,  // measure 25
3001
1000
1000
0100
,  // measure 26
0100
0001
0001
0010
,  // measure 27
0010
1000
1000
0100
,  // measure 28
0100
0001
0001
0010
,  // measure 29
0010
1000
1002
0000
,  // measure 30
1003
0001
0100
0010
,  // measure 31
1000
0001
2001
0000
,  // measure 32
3001
1000
0100
0010
,  // measure 33
0001
0100
0120
0000
,  // measure 34
0130
0010
1000
0100
,  // measure 35
0010
0000
0001
0000
0000
1000
0000
0000
,  // measure 36
0000
0010
0010
0100
,  // measure 37
0100
0000
0001
0000
0000
1000
0000
0000
,  // measure 38
0000
0100
0100
0010
,  // measure 39
1001
2000
3000
0002
,  // measure 40
0003
0200
0300
0020
,  // measure 41
0030
0200
0300
0002
,  // measure 42
0003
0020
0000
0000
,  // measure 43
0000
0130
0100
1100
,  // measure 44
0000
1000
1000
1001
,  // measure 45
0000
0001
0001
0101
,  // measure 46
0000
0100
0100
0110
,  // measure 47
0000
0010
0010
1000
,  // measure 48
1000
0001
0001
0010
,  // measure 49
0010
0100
1000
0010
,  // measure 50
0100
0000
0002
0000
2003
0000
3100
0010
,  // measure 51
0100
0000
0000
0000
;

//---------------dance-single - xRGTMx----------------
#NOTES:
     dance-single:
     xRGTMx:
     Easy:
     3:
     0.191,0.186,0.139,0.074,0.000: // measure 1
0000
1000
0000
1000
,  // measure 2
0000
0001
0000
0001
,  // measure 3
0000
0100
0100
0100
,  // measure 4
0000
0010
0010
0010
,  // measure 5
0000
1000
1000
1000
,  // measure 6
0000
0001
0000
1001
,  // measure 7
0000
0001
0001
0001
,  // measure 8
0000
1000
0000
1001
,  // measure 9
0000
1000
0100
1000
,  // measure 10
0000
0001
0000
1001
,  // measure 11
0000
0001
0100
0001
,  // measure 12
0000
1000
0000
1001
,  // measure 13
0000
2000
0000
3001
,  // measure 14
0000
0002
0000
1003
,  // measure 15
0000
2000
0000
3001
,  // measure 16
0000
0002
0000
0000
,  // measure 17
0000
1003
0000
1000
,  // measure 18
0000
0001
0001
0001
,  // measure 19
0000
0100
0000
0100
,  // measure 20
0000
0010
0010
0010
,  // measure 21
0000
1000
1000
1000
,  // measure 22
1000
1000
1000
1000
,  // measure 23
0000
0001
0001
0001
,  // measure 24
0001
0001
0001
0001
,  // measure 25
0000
0100
0100
0100
,  // measure 26
0000
0010
0000
0110
,  // measure 27
0000
0010
0010
0010
,  // measure 28
0000
0100
0000
0110
,  // measure 29
0000
0001
0001
0001
,  // measure 30
0000
1000
0000
1001
,  // measure 31
0000
1000
1000
1000
,  // measure 32
0000
0001
0000
1001
,  // measure 33
0000
1000
1000
1000
,  // measure 34
0000
0100
0000
0011
,  // measure 35
0000
0000
0100
0000
0000
0100
0000
0000
,  // measure 36
0000
0010
0000
1001
,  // measure 37
0000
0000
0100
0000
0000
0100
0000
0000
,  // measure 38
0000
0010
0000
1001
,  // measure 39
0000
2000
3000
0000
,  // measure 40
0000
0002
0003
0000
,  // measure 41
0000
0200
0300
0000
,  // measure 42
0000
0020
0030
0000
,  // measure 43
0000
1000
0000
1001
,  // measure 44
0000
0001
0000
1001
,  // measure 45
0000
0100
0000
0110
,  // measure 46
0000
0010
0000
0110
,  // measure 47
0000
0001
0001
0001
,  // measure 48
0001
0001
0001
0001
,  // measure 49
0000
1000
1000
1000
,  // measure 50
1000
1000
1000
1000
,  // measure 51
1000
0000
0000
0000
;

//---------------dance-single - xRGTMx----------------
#NOTES:
     dance-single:
     xRGTMx:
     Beginner:
     1:
     0.097,0.116,0.093,0.056,0.000: // measure 1
0000
1000
0000
0000
,  // measure 2
0000
1000
0000
0000
,  // measure 3
0000
0001
0000
0000
,  // measure 4
0000
0001
0000
0000
,  // measure 5
0000
1001
0000
0000
,  // measure 6
0000
0100
0000
0000
,  // measure 7
0000
1001
0000
0000
,  // measure 8
0000
0010
0000
0000
,  // measure 9
0000
0110
0000
0000
,  // measure 10
0000
1000
0000
0000
,  // measure 11
0000
0110
0000
0000
,  // measure 12
0000
0001
0000
0000
,  // measure 13
0000
2000
0000
3000
,  // measure 14
0000
0000
0000
0000
,  // measure 15
0000
0002
0000
0003
,  // measure 16
0000
0000
0000
0000
,  // measure 17
0000
0100
0000
0000
,  // measure 18
0000
0010
0000
0000
,  // measure 19
0000
1000
0000
0000
,  // measure 20
0000
0001
0000
0000
,  // measure 21
0000
0100
0000
0100
,  // measure 22
0000
0100
0000
0100
,  // measure 23
0000
0010
0000
0010
,  // measure 24
0000
0010
0000
0010
,  // measure 25
0000
1001
0000
0000
,  // measure 26
0000
0100
0000
0000
,  // measure 27
0000
1001
0000
0000
,  // measure 28
0000
0010
0000
0000
,  // measure 29
0000
0110
0000
0000
,  // measure 30
0000
1000
0000
0000
,  // measure 31
0000
0110
0000
0000
,  // measure 32
0000
0001
0000
0000
,  // measure 33
0000
1001
0000
0000
,  // measure 34
0000
0110
0000
0000
,  // measure 35
0000
0000
2000
0000
0000
3000
0000
0000
,  // measure 36
0000
0001
0000
0001
,  // measure 37
0000
0000
0002
0000
0000
0003
0000
0000
,  // measure 38
0000
1000
0000
1000
,  // measure 39
0000
2000
0000
3000
,  // measure 40
0000
0000
0000
0000
,  // measure 41
0000
0002
0000
0003
,  // measure 42
0000
0000
0000
0000
,  // measure 43
0000
0100
0000
0000
,  // measure 44
0000
0010
0000
0000
,  // measure 45
0000
1000
0000
0000
,  // measure 46
0000
0001
0000
0000
,  // measure 47
0000
0100
0000
0100
,  // measure 48
0000
0100
0000
0100
,  // measure 49
0000
0010
0000
0010
,  // measure 50
0000
0010
0000
0010
,  // measure 51
0010
0000
0000
0000
;
