#VERSION:0.83;
#TITLE:Swish Swish (feat. Nicki Minaj);
#SUBTITLE:;
#ARTIST:Katy Perry;
#TITLETRANSLIT:;
#SUBTITLETRANSLIT:;
#ARTISTTRANSLIT:;
#GENRE:Pop;
#ORIGIN:;
#CREDIT:chewi;
#BANNER:Swish Swish (feat. Nicki Minaj).png;
#BACKGROUND:Swish Swish (feat. Nicki Minaj)-bg.png;
#PREVIEWVID:;
#JACKET:Swish Swish (feat. Nicki Minaj)-jacket.png;
#CDIMAGE:;
#DISCIMAGE:;
#LYRICSPATH:;
#CDTITLE:cdtitle.png;
#MUSIC:Swish Swish (feat. Nicki Minaj).ogg;
#OFFSET:-0.274776;
#SAMPLESTART:50.633999;
#SAMPLELENGTH:15.000000;
#SELECTABLE:YES;
#BPMS:0.000=60.000,
16.000=120.000,
48.000=60.000,
64.000=240.000,
72.000=30.000,
73.000=120.000;
#STOPS:;
#DELAYS:;
#WARPS:;
#TIMESIGNATURES:0.000=4=4;
#TICKCOUNTS:0.000=4;
#COMBOS:0.000=1;
#SPEEDS:0.000=1.000=0.000=0;
#SCROLLS:0.000=1.000;
#FAKES:;
#LABELS:0.000=Song Start;
#BGCHANGES:-0.290=Swish Swish (feat. Nicki Minaj).avi=1.000=1=0=1===CrossFade==,
99999=-nosongbg-=1.000=0=0=0 // don't automatically add -songbackground-
;
#KEYSOUNDS:;
#ATTACKS:
;

//---------------dance-single - ----------------
#NOTEDATA:;
#CHARTNAME:;
#STEPSTYPE:dance-single;
#DESCRIPTION:;
#CHARTSTYLE:;
#DIFFICULTY:Hard;
#METER:10;
#RADARVALUES:0.297654,0.330813,0.071031,0.000000,0.100627,176.000000,170.000000,6.000000,0.000000,0.000000,0.000000,0.000000,0.000000,0.000000,0.297654,0.330813,0.071031,0.000000,0.100627,176.000000,170.000000,6.000000,0.000000,0.000000,0.000000,0.000000,0.000000,0.000000;
#CREDIT:;
#NOTES:
0000
0000
0000
0000
,
0000
0000
0000
0000
,
0000
1000
0000
0100
0000
0010
0000
0100
,
0000
0000
1000
0000
0000
0000
0001
1000
0000
0000
0000
0000
0000
0000
0000
0000
,
0100
0000
0000
0000
0010
0000
0000
0010
0000
0000
0010
0000
1000
0000
0000
0000
,
0001
0000
1000
0000
0100
0000
0000
0100
0000
0000
0100
0000
1000
0000
0000
0000
,
0100
0000
0000
0000
0010
0000
0000
0010
0000
0000
0010
0000
0001
0000
0000
0000
,
0010
0000
0100
0000
1000
0000
0000
1000
0000
0000
1000
0000
0001
0000
0000
0000
,
0100
0010
0100
0010
1000
0100
0010
0010
,
0001
0010
0001
0010
0100
1000
0001
0001
,
1000
0100
1000
0100
0010
0100
1000
1000
,
0001
0000
1000
0000
0001
0000
0000
1000
0000
0000
0010
0000
0010
0000
0000
0000
,
0100
0000
0010
0000
,
1000
0000
0001
0000
,
1000
0100
0000
0100
0001
0100
0000
0100
,
1000
0010
0000
0010
0001
0010
0100
1000
,
0000
0000
0000
0000
,
0000
0000
0000
0000
,
0000
0001
0001
0001
0010
0000
0001
0000
0010
0000
0000
0001
0000
0000
0010
0000
,
0001
0000
0000
0000
0001
0000
0000
0000
0100
0000
0000
0010
0000
0000
1000
0000
,
1010
0000
0000
0000
0010
0000
1000
0000
0010
0000
0000
1000
0000
0000
0010
0000
,
1010
0100
1100
0101
,
1100
0000
0000
0000
0100
0000
1000
0000
0100
0000
0000
1000
0000
0000
0100
0000
,
1000
0000
0000
0000
1000
0000
0000
0000
0010
0000
0000
0100
0000
0000
0001
0000
,
0101
0000
0000
0000
0100
0000
0100
0000
0100
0000
0000
0010
0000
0000
1000
0000
,
0001
0000
0000
0000
1000
0000
0001
0000
1000
0000
0001
1000
0001
0000
0000
0000
,
0100
0100
0010
1000
0001
1000
0100
0000
,
0010
0001
0010
0001
0100
0010
1000
0000
,
0010
0100
0001
0001
0010
0010
0100
0000
,
1000
0001
1000
0001
0001
1000
0001
0000
,
0100
0100
0010
0010
1000
0001
1000
0000
,
0001
0000
1000
0000
0010
0000
0100
0000
0010
0000
0000
0010
0000
0000
0010
0000
,
0000
0000
0000
0000
0100
0000
0010
0000
0100
0000
0000
0100
0000
0000
0100
0000
;

//---------------dance-single - ----------------
#NOTEDATA:;
#CHARTNAME:;
#STEPSTYPE:dance-single;
#DESCRIPTION:;
#CHARTSTYLE:;
#DIFFICULTY:Beginner;
#METER:3;
#RADARVALUES:0.099782,0.135699,0.011839,0.023677,0.000000,59.000000,58.000000,1.000000,2.000000,0.000000,0.000000,0.000000,0.000000,0.000000,0.099782,0.135699,0.011839,0.023677,0.000000,59.000000,58.000000,1.000000,2.000000,0.000000,0.000000,0.000000,0.000000,0.000000;
#CREDIT:;
#NOTES:
// measure 0
0000
0000
0000
0000
,  // measure 1
0000
0000
0000
0000
,  // measure 2
0000
0000
0000
0000
,  // measure 3
0000
0000
0000
0000
,  // measure 4
2000
0000
0000
3000
,  // measure 5
1000
0000
0000
0000
,  // measure 6
0002
0000
0000
0003
,  // measure 7
0001
0000
0000
0000
,  // measure 8
1000
0000
1000
0000
,  // measure 9
0001
0000
0001
0000
,  // measure 10
1000
0000
1000
0000
,  // measure 11
0001
0000
0001
0000
,  // measure 12
1001
0000
0100
0000
,  // measure 13
0100
0000
0100
0000
,  // measure 14
0010
0000
0010
0000
,  // measure 15
0010
0000
0010
0000
,  // measure 16
0000
0000
0000
0000
,  // measure 17
0000
0000
0000
0000
,  // measure 18
0000
1000
0000
1000
,  // measure 19
0000
0001
0000
0001
,  // measure 20
0000
1000
1000
1000
,  // measure 21
0000
0001
0001
0001
,  // measure 22
0000
0100
0000
0100
,  // measure 23
0000
0010
0000
0010
,  // measure 24
0000
0100
0100
0100
,  // measure 25
0000
0100
0100
0100
,  // measure 26
0000
0100
0000
0010
,  // measure 27
0000
1000
1000
1000
,  // measure 28
0000
1000
0000
0001
,  // measure 29
0000
1000
1000
1000
,  // measure 30
0000
0001
0000
0010
,  // measure 31
0000
0010
0010
0010
,  // measure 32
0000
0100
0100
0100
;

//---------------dance-single - ----------------
#NOTEDATA:;
#CHARTNAME:;
#STEPSTYPE:dance-single;
#DESCRIPTION:;
#CHARTSTYLE:;
#DIFFICULTY:Medium;
#METER:8;
#RADARVALUES:0.257065,0.291894,0.201255,0.000000,0.053273,152.000000,135.000000,17.000000,0.000000,0.000000,0.000000,0.000000,0.000000,0.000000,0.257065,0.291894,0.201255,0.000000,0.053273,152.000000,135.000000,17.000000,0.000000,0.000000,0.000000,0.000000,0.000000,0.000000;
#CREDIT:;
#NOTES:
0000
0000
0000
0000
,
0000
0000
0000
0000
,
0000
1000
0000
0001
0000
0010
0000
0100
,
0000
0000
1000
0000
0000
0000
0001
1000
0000
0000
0000
0000
0000
0000
0000
0000
,
1000
0000
0000
0000
1000
0000
0000
1000
0000
0000
1000
0000
0000
0000
0000
0000
,
0001
0000
0000
0000
0001
0000
0000
0001
0000
0000
0001
0000
0000
0000
0000
0000
,
0010
0000
0000
0000
0010
0000
0000
0010
0000
0000
0010
0000
0000
0000
0000
0000
,
0100
0000
0000
0000
0100
0000
0000
0100
0000
0000
0100
0000
0000
0000
0000
0000
,
0010
0100
0000
1000
0000
0001
0000
1000
,
0010
0100
0000
0001
0000
0100
0000
0010
,
1000
0001
0000
1000
0000
0010
0000
1000
,
0001
0000
0010
0000
0100
0000
0000
0100
0000
0000
0100
0000
0000
0000
0000
0000
,
1000
0000
0001
0000
,
0100
0000
0010
0000
,
0100
0001
0000
0001
0000
0010
0000
0010
,
0000
0100
0000
0100
1000
0001
1000
0001
,
0000
0000
0000
0000
,
0000
0000
0000
0000
,
0000
0001
0001
0001
1000
0000
0000
0000
1001
0000
0000
0000
0100
0000
0010
0000
,
0100
0001
0011
1000
,
1010
0000
1000
0000
1001
0000
1000
0100
,
0010
0001
0011
1010
,
0011
0000
1000
0000
1010
0000
0010
1000
,
0001
0000
1000
0000
1100
0000
0010
0100
,
1000
0000
0001
0000
0011
0000
0100
1000
,
0001
1000
1100
0001
,
0101
0000
1000
0100
0010
0001
0010
0000
,
0001
0010
0101
0010
,
1100
0000
0010
1000
0100
0010
0001
0000
,
0100
0010
0101
0010
,
1100
0000
0001
0100
1000
0100
0001
0000
,
0010
0000
0001
0100
1000
0100
0001
0000
,
0010
0000
0000
0000
0010
0000
0100
0000
1000
0000
0000
0001
0000
0000
1001
0000
;

//---------------dance-single - ----------------
#NOTEDATA:;
#CHARTNAME:;
#STEPSTYPE:dance-single;
#DESCRIPTION:;
#CHARTSTYLE:;
#DIFFICULTY:Easy;
#METER:4;
#RADARVALUES:0.145445,0.174470,0.000000,0.000000,0.000000,86.000000,86.000000,0.000000,0.000000,0.000000,0.000000,0.000000,0.000000,0.000000,0.145445,0.174470,0.000000,0.000000,0.000000,86.000000,86.000000,0.000000,0.000000,0.000000,0.000000,0.000000,0.000000,0.000000;
#CREDIT:;
#NOTES:
// measure 0
0000
0000
0000
0000
,  // measure 1
0000
0000
0000
0000
,  // measure 2
0000
1000
0000
1000
0000
0001
0000
0001
,  // measure 3
0000
1000
0000
1000
0000
0000
0000
0000
,  // measure 4
0001
0001
0001
0000
,  // measure 5
1000
0001
1000
0000
,  // measure 6
1000
1000
1000
0000
,  // measure 7
0001
1000
0001
0000
,  // measure 8
1000
0000
0010
0000
,  // measure 9
0001
0000
0010
0000
,  // measure 10
1000
0000
0100
0000
,  // measure 11
0001
0000
0100
0000
,  // measure 12
0100
0000
0010
0000
,  // measure 13
1000
0000
0001
0000
,  // measure 14
1000
0000
0001
0000
,  // measure 15
0010
0000
0100
0100
,  // measure 16
0000
0000
0000
0000
,  // measure 17
0000
0000
0000
0000
,  // measure 18
0000
0100
0100
0100
,  // measure 19
0000
0100
0010
0001
,  // measure 20
0000
0100
0100
0100
,  // measure 21
0000
0010
0100
0010
,  // measure 22
0000
0100
0010
1000
,  // measure 23
0000
0100
0010
0001
,  // measure 24
0000
1000
0001
1000
,  // measure 25
0000
0001
0100
0001
,  // measure 26
0100
0001
1000
0001
,  // measure 27
1000
0001
0010
0001
,  // measure 28
0010
0100
0100
0100
,  // measure 29
0000
1000
0100
1000
,  // measure 30
0010
1000
0001
1000
,  // measure 31
0001
1000
0100
1000
,  // measure 32
0100
1000
1000
1000
;
