#TITLE:Super Special Smiling Shy girl;
#SUBTITLE:;
#ARTIST:田村ゆかり;
#TITLETRANSLIT:;
#SUBTITLETRANSLIT:;
#ARTISTTRANSLIT:TAMURA YUKARI;
#GENRE:;
#CREDIT:Chewi☆;
#MENUCOLOR:#FFFFFF;
#METERTYPE:DDR X;
#BANNER:Super Special Smiling Shy girl.png;
#BACKGROUND:Super Special Smiling Shy girl-bg.png;
#LYRICSPATH:;
#CDTITLE:./CDTITLES/DanceDanceRevolution skyMIX3 -breeze-.png;
#MUSIC:Super Special Smiling Shy girl.mp3;
#OFFSET:-3.439;
#SAMPLESTART:47.544;
#SAMPLELENGTH:15.000;
#SELECTABLE:YES;
#LISTSORT:;
#DISPLAYBPM:183.000;
#BPMS:0.000=183.000;
#STOPS:;
#BGCHANGES:;
#ATTACKS:;

//---------------dance-single - Chewi----------------
#NOTES:
     dance-single:
     Chewi:
     Beginner:
     3:
     0.184,0.179,0.000,0.000,0.000: // measure 1
0000
0000
0000
0000
,  // measure 2
0000
0000
0000
0000
,  // measure 3
0000
0000
0000
0000
,  // measure 4
0000
0000
0000
0000
,  // measure 5
1000
0000
1000
0000
,  // measure 6
0001
0000
0001
0000
,  // measure 7
1000
0000
1000
0000
,  // measure 8
0001
0000
0001
0000
,  // measure 9
0010
0000
0000
0000
,  // measure 10
0010
0000
0010
0000
,  // measure 11
0100
0000
0000
0000
,  // measure 12
0100
0000
0100
0000
,  // measure 13
1000
0000
0001
0000
,  // measure 14
1000
0000
0001
0000
,  // measure 15
1000
0000
0001
0000
,  // measure 16
1000
0000
0001
0000
,  // measure 17
0010
0000
1000
0000
,  // measure 18
0100
0000
0001
0000
,  // measure 19
0010
0000
0001
0000
,  // measure 20
0100
0000
1000
0000
,  // measure 21
1000
0000
0100
0000
,  // measure 22
0010
0000
0010
0000
,  // measure 23
0001
0000
0010
0000
,  // measure 24
0100
0000
0100
0000
,  // measure 25
1000
0000
0010
0000
,  // measure 26
0001
0000
0010
0000
,  // measure 27
1000
0000
0100
0000
,  // measure 28
0001
0000
0001
0000
,  // measure 29
0001
0000
0100
0000
,  // measure 30
1000
0000
0010
0000
,  // measure 31
1000
0000
1000
0000
,  // measure 32
0100
0000
0100
0000
,  // measure 33
0100
0000
0100
0000
,  // measure 34
0010
0000
0010
0000
,  // measure 35
0010
0000
0100
0000
,  // measure 36
0010
0000
1000
0000
,  // measure 37
1000
0000
0001
0000
,  // measure 38
0001
0000
0010
0000
,  // measure 39
0010
0000
0100
0000
,  // measure 40
1000
0000
0010
0000
,  // measure 41
1000
0000
0001
0000
,  // measure 42
1000
0000
0001
0000
,  // measure 43
0100
0000
0100
0000
,  // measure 44
0001
0000
0100
0000
,  // measure 45
0001
0000
1000
0000
,  // measure 46
1000
0000
0100
0000
,  // measure 47
0100
0000
0010
0000
,  // measure 48
1000
0000
0010
0000
,  // measure 49
1000
0000
0001
0000
,  // measure 50
0001
0000
1000
0000
,  // measure 51
0010
0000
1000
0000
,  // measure 52
0001
0000
1000
0000
,  // measure 53
0001
0000
1000
0000
,  // measure 54
0001
0000
0010
0000
,  // measure 55
0100
0000
0100
0000
,  // measure 56
0010
0000
0100
0000
,  // measure 57
0001
0000
1000
0000
,  // measure 58
0010
0000
0010
0000
,  // measure 59
1000
0000
0100
0000
,  // measure 60
0001
0000
1000
0000
,  // measure 61
1000
0000
0010
0000
,  // measure 62
0001
0000
1000
0000
,  // measure 63
0100
0000
0010
0000
,  // measure 64
0100
0000
0100
0000
,  // measure 65
0010
0000
0010
0000
,  // measure 66
0010
0000
0010
0000
,  // measure 67
0010
0000
0000
0000
,  // measure 68
0100
0000
0000
0000
,  // measure 69
0010
0000
0000
0000
,  // measure 70
1000
0000
0000
0000
,  // measure 71
0001
0000
0000
0000
,  // measure 72
0010
0000
0000
0000
,  // measure 73
0001
0000
0001
0000
,  // measure 74
0010
0000
1000
0000
,  // measure 75
0100
0000
0000
0000
;

//---------------dance-single - Chewi----------------
#NOTES:
     dance-single:
     Chewi:
     Easy:
     5:
     0.308,0.358,0.087,0.136,0.000: // measure 1
0000
0000
0000
0000
,  // measure 2
0000
0000
0000
0000
,  // measure 3
0000
0000
0000
0000
,  // measure 4
0000
0000
0000
0000
,  // measure 5
1000
0100
1000
0100
,  // measure 6
0001
0100
0001
0100
,  // measure 7
1000
0001
1000
0001
,  // measure 8
0001
1000
0001
1000
,  // measure 9
0020
0000
0000
0030
,  // measure 10
0010
0010
0010
0000
,  // measure 11
0200
0000
0000
0300
,  // measure 12
0100
0100
0100
0000
,  // measure 13
1000
0010
0001
0010
,  // measure 14
1000
0010
0001
0010
,  // measure 15
1000
0100
0001
0100
,  // measure 16
1000
0100
0001
0100
,  // measure 17
0010
0000
1000
0000
,  // measure 18
0100
0000
0001
0000
,  // measure 19
0010
0000
0001
0000
,  // measure 20
0100
0000
1000
0000
,  // measure 21
1000
0000
0100
0000
,  // measure 22
0010
0001
0010
0000
,  // measure 23
0001
0000
0010
0000
,  // measure 24
0100
1000
0100
0000
,  // measure 25
2000
0000
3010
0000
,  // measure 26
0002
0000
0013
0000
,  // measure 27
2000
0000
3100
0000
,  // measure 28
0001
0100
0001
0100
,  // measure 29
0002
0000
0103
0000
,  // measure 30
2000
0000
3010
0000
,  // measure 31
1000
0010
1000
0010
,  // measure 32
0100
0010
0100
0010
,  // measure 33
0100
0001
0100
0001
,  // measure 34
0010
0001
0010
0001
,  // measure 35
0010
0000
0110
0000
,  // measure 36
0010
0100
1000
0001
,  // measure 37
1000
0000
1001
0000
,  // measure 38
0001
0100
0010
1000
,  // measure 39
0010
0000
0110
0000
,  // measure 40
1000
0100
0010
0001
,  // measure 41
1000
0100
0001
0100
,  // measure 42
1000
0010
0001
0010
,  // measure 43
0100
0010
0110
0000
,  // measure 44
0001
0010
0100
1000
,  // measure 45
0001
1000
1001
0000
,  // measure 46
1000
0010
0100
0001
,  // measure 47
0100
0010
0110
0000
,  // measure 48
1000
0100
0010
0001
,  // measure 49
1000
0100
0001
0010
,  // measure 50
0001
0100
1000
0010
,  // measure 51
0110
0000
1000
0000
,  // measure 52
0001
0000
1000
0000
,  // measure 53
1001
0000
1000
0000
,  // measure 54
0001
0000
0010
0000
,  // measure 55
0110
0000
0100
0000
,  // measure 56
0010
0000
0100
0000
,  // measure 57
0001
0001
1000
1000
,  // measure 58
0010
0100
0010
0100
,  // measure 59
1000
0000
0100
0000
,  // measure 60
0001
0010
1000
0000
,  // measure 61
1000
0000
0010
0000
,  // measure 62
0001
0100
1000
0000
,  // measure 63
0100
0000
0010
0000
,  // measure 64
0100
0010
0100
0000
,  // measure 65
0010
0001
0010
0001
,  // measure 66
0010
1000
0010
1000
,  // measure 67
0020
0000
0000
0000
,  // measure 68
0230
0000
0000
0000
,  // measure 69
0320
0000
0000
0000
,  // measure 70
2030
0000
0000
0000
,  // measure 71
3002
0000
0000
0000
,  // measure 72
0023
0000
0000
0000
,  // measure 73
0031
1000
0001
1000
,  // measure 74
0010
0100
0001
0200
,  // measure 75
0300
0000
0000
0000
;

//---------------dance-single - Chewi----------------
#NOTES:
     dance-single:
     Chewi:
     Medium:
     8:
     0.397,0.466,0.077,0.184,0.000: // measure 1
0000
0000
0000
0000
,  // measure 2
0000
0000
0000
0000
,  // measure 3
0000
0000
0000
0000
,  // measure 4
0000
0000
0000
0000
,  // measure 5
0000
1000
0000
0100
0000
1000
0000
0100
,  // measure 6
0000
0001
0000
0010
0000
0001
0000
0010
,  // measure 7
0000
0001
0000
0100
0000
0001
0000
0100
,  // measure 8
0000
0000
0010
0100
0010
0000
0110
0000
,  // measure 9
0100
0010
0100
0000
0001
0000
1000
2000
,  // measure 10
0000
0000
0000
3000
,  // measure 11
0001
1000
0001
0000
0010
0000
0100
0000
,  // measure 12
0010
0001
0100
1000
,  // measure 13
0010
0000
0100
0000
0010
0100
0010
0000
,  // measure 14
1000
0100
0010
0001
,  // measure 15
1000
0100
0001
0010
,  // measure 16
0001
0100
1000
0010
,  // measure 17
0000
0100
0000
0100
0000
0100
0000
0100
,  // measure 18
0000
0010
0000
0010
0000
0010
0000
0010
,  // measure 19
0000
1000
0000
1000
0000
1000
0000
1000
,  // measure 20
0000
0001
0000
0001
0000
0001
0000
0001
,  // measure 21
0000
0001
0000
0101
0000
1000
0000
1010
,  // measure 22
0000
0001
0001
0010
0000
1000
0100
1000
,  // measure 23
0100
0100
1000
0001
,  // measure 24
0100
0010
0100
0010
0100
0000
0001
0000
,  // measure 25
0020
0000
1000
0000
,  // measure 26
0230
0000
0001
0000
,  // measure 27
0302
0000
1000
0000
,  // measure 28
0013
0100
0010
0100
,  // measure 29
2000
0000
0100
0000
,  // measure 30
3020
0000
0001
0000
,  // measure 31
0130
0100
0010
0010
,  // measure 32
1000
0100
0010
0001
,  // measure 33
1000
0100
1000
0000
0001
0100
0001
0000
,  // measure 34
0100
0010
1000
0001
,  // measure 35
1000
0000
0000
0001
1000
0000
0000
0000
,  // measure 36
0001
0010
0100
1000
,  // measure 37
0010
0000
0000
0100
0010
0000
0000
0000
,  // measure 38
0100
0010
1000
0001
,  // measure 39
0010
0000
0000
0001
0010
0000
0000
0000
,  // measure 40
0001
0010
0100
1000
,  // measure 41
0020
1030
0020
1030
,  // measure 42
0200
0301
0200
0301
,  // measure 43
0100
0000
0000
0010
0100
0000
0000
0000
,  // measure 44
0010
1000
0001
0010
,  // measure 45
0100
0000
0000
0010
0100
0000
0000
0000
,  // measure 46
0010
0001
1000
0010
,  // measure 47
0100
0000
0000
0001
0100
0000
0000
0000
,  // measure 48
0010
1000
0001
0010
,  // measure 49
0002
0013
0002
0013
,  // measure 50
2000
3100
2000
3100
,  // measure 51
1000
0001
0100
0100
,  // measure 52
0001
1000
0010
0010
,  // measure 53
1000
0010
0100
0101
,  // measure 54
0001
0010
0100
1100
,  // measure 55
1000
0100
0010
0001
,  // measure 56
1000
0100
0010
0001
,  // measure 57
1000
0001
0100
0010
,  // measure 58
0100
0010
0100
0000
0010
0100
0010
0000
,  // measure 59
1000
0010
0001
0100
,  // measure 60
0001
0010
0001
0100
,  // measure 61
0001
0100
1000
0010
,  // measure 62
1000
0100
1000
0010
,  // measure 63
0100
0010
0001
0010
,  // measure 64
0001
0010
0001
0010
,  // measure 65
0010
1001
0100
1001
,  // measure 66
1000
0100
0010
0001
,  // measure 67
2000
0000
0010
0000
,  // measure 68
0001
0000
3100
0000
,  // measure 69
0200
0000
1000
0000
,  // measure 70
0001
0000
1300
0000
,  // measure 71
0020
0000
0001
0000
,  // measure 72
1000
0000
0031
0000
,  // measure 73
0010
0001
0010
0100
,  // measure 74
1000
0100
1000
2002
,  // measure 75
3003
0000
0000
0000
;

//---------------dance-single - Chewi----------------
#NOTES:
     dance-single:
     Chewi:
     Hard:
     11:
     0.574,0.645,0.552,0.348,0.000: // measure 1
0000
0000
0000
0000
,  // measure 2
0000
0000
0000
0000
,  // measure 3
0000
0000
0000
0000
,  // measure 4
0000
0000
0000
0000
,  // measure 5
0000
1000
0000
0010
0000
0101
0000
0011
,  // measure 6
0000
0001
0000
0010
0000
1100
0000
1010
,  // measure 7
0000
1000
0000
0101
0000
0001
0000
1100
,  // measure 8
1000
0100
0010
0001
0020
0000
0230
0000
,  // measure 9
0310
0010
0001
0001
0010
0100
1000
0020
,  // measure 10
0000
0000
0000
0000
0000
0000
0130
0010
,  // measure 11
2000
3002
0023
0230
,  // measure 12
0310
0001
0010
0100
1000
0010
1000
0000
,  // measure 13
0100
0010
0001
1000
0010
0100
0001
0000
,  // measure 14
0101
0000
0010
0100
0000
0100
0010
0000
,  // measure 15
1000
0100
0010
0000
0100
1000
0010
0000
,  // measure 16
0100
0001
0100
0001
0010
0001
0010
0000
,  // measure 17
0000
0001
0000
0011
0000
1000
0000
1100
,  // measure 18
0000
0001
0000
1001
0000
1000
0000
1001
,  // measure 19
0000
0100
0000
0110
0000
0010
0000
0110
,  // measure 20
0000
0010
0000
1001
0000
1000
0100
0010
,  // measure 21
0001
1000
0000
0010
0000
0001
0000
0010
,  // measure 22
1000
0000
1001
0001
0000
0000
0000
0000
,  // measure 23
1000
0010
0100
0001
1000
0010
0100
0001
,  // measure 24
1000
0001
1000
0001
1000
0000
1100
0000
,  // measure 25
0002
0000
0013
0000
0100
0010
0100
0000
,  // measure 26
0020
0000
1030
0000
0100
1000
0100
0000
,  // measure 27
2000
0000
3100
0000
0001
0010
0001
0000
,  // measure 28
0100
0110
0001
1001
,  // measure 29
2000
0000
3010
0100
0001
0100
0010
0000
,  // measure 30
2000
0000
3001
0010
0100
1000
0010
0000
,  // measure 31
0000
0100
0000
0101
0000
0001
0000
0011
,  // measure 32
0000
1000
0000
1100
0000
0101
0000
1100
,  // measure 33
0000
1000
0000
1010
0001
0010
0100
1000
,  // measure 34
0010
0100
0001
0100
,  // measure 35
0210
0000
0000
0010
0020
0000
0000
0330
,  // measure 36
1000
0001
0010
0100
1000
0010
1000
0000
,  // measure 37
2100
0000
0000
0001
0002
0000
0000
3003
,  // measure 38
0001
0010
0100
1000
0010
0100
0001
0000
,  // measure 39
0102
0000
0000
0010
0020
0000
0000
0033
,  // measure 40
0001
0010
0100
1000
0010
1000
0100
0000
,  // measure 41
1100
0101
1100
0101
,  // measure 42
1001
0101
1001
1100
,  // measure 43
0012
0000
0000
0010
0020
0000
0000
0033
,  // measure 44
0001
0010
0100
1000
0001
0010
0100
0000
,  // measure 45
2100
0000
0000
0100
0200
0000
0000
3300
,  // measure 46
1000
0100
0010
0001
1000
0100
0010
0000
,  // measure 47
0001
0101
1000
1010
,  // measure 48
0001
1000
0100
0000
1000
0001
0100
0000
,  // measure 49
0101
0010
0100
1000
,  // measure 50
1010
0100
0010
0001
,  // measure 51
1000
0100
1000
0000
0100
0001
0100
0000
,  // measure 52
0001
0010
0001
0000
0010
1000
0010
0000
,  // measure 53
1000
0010
1000
0000
0010
0001
0010
0000
,  // measure 54
0001
0100
0001
0000
0100
1000
0100
0000
,  // measure 55
1000
0100
1000
0000
0001
0100
0001
0000
,  // measure 56
1000
0001
1000
0000
0001
1000
0001
0000
,  // measure 57
1001
1100
1001
0101
,  // measure 58
0011
1010
0011
1002
,  // measure 59
0103
0000
0000
0010
1000
0000
0000
0000
,  // measure 60
0100
0000
0000
0010
0001
0000
0000
0000
,  // measure 61
1000
0000
0000
0001
0100
0000
0000
0000
,  // measure 62
0001
0000
0000
1000
0100
0000
0000
0000
,  // measure 63
0010
0000
0001
0000
0100
1000
0010
0000
,  // measure 64
1000
0000
0100
0000
0001
0010
0100
0000
,  // measure 65
0010
0101
0010
1100
,  // measure 66
1001
1001
0011
0011
,  // measure 67
0200
0000
0320
0000
,  // measure 68
0032
0000
2003
0000
,  // measure 69
3002
0000
0203
0000
,  // measure 70
0320
0000
2030
0000
,  // measure 71
3020
0000
0032
0000
,  // measure 72
0203
0000
2300
0000
,  // measure 73
3100
0110
0001
1001
,  // measure 74
0001
0100
1000
0020
,  // measure 75
0030
0000
0000
0000
;
