#TITLE:Super Bass;
#SUBTITLE:;
#ARTIST:Nicki Minaj;
#TITLETRANSLIT:;
#SUBTITLETRANSLIT:;
#ARTISTTRANSLIT:;
#CREDIT:Chewi☆;
#BANNER:Super Bass.png;
#BACKGROUND:Super Bass-bg.png;
#LYRICSPATH:;
#CDTITLE:;
#MUSIC:Super Bass.mp3;
#OFFSET:-1.699;
#SAMPLESTART:46.054;
#SAMPLELENGTH:15.000;
#SELECTABLE:YES;
#BPMS:0.000=127.000;
#STOPS:;
#BGCHANGES:;

//---------------dance-single - Chewi----------------
#NOTES:
     dance-single:
     Chewi:
     Hard:
     10:
     0.476,0.463,0.063,0.051,0.152:
0000
0000
0000
0000
,
0000
0000
0000
0000
,
0000
0000
0000
0000
,
0000
0000
0000
0000
,
1000
0000
0100
0000
0010
0001
0100
0000
,
0001
0000
0100
0000
0010
1000
0100
0000
,
0010
0100
0010
0000
0001
0000
0101
0000
,
0100
0010
0100
0000
0010
0000
1010
0000
,
2001
0000
3100
0000
0001
1000
0010
0000
,
1002
0000
0013
0000
1000
0010
0100
0000
,
0001
0100
0001
0000
1000
0100
1000
0000
,
0001
0010
0100
1000
1000
0100
0010
0001
,
1000
1000
0001
1000
0001
0001
1000
0001
,
0100
0010
0100
0001
0010
0100
0010
1000
,
0010
0100
1000
0001
0100
0010
0000
0100
,
0001
0010
0100
1000
0010
0100
0000
0000
,
0001
0001
1000
0001
0010
0100
1000
0000
,
1000
0010
0001
0010
1000
0100
0001
0100
,
1000
1000
1000
0010
0100
0001
0100
0010
,
1000
1000
0001
0001
1000
0100
0010
0001
,
0100
0100
0010
0010
0100
0001
1000
0000
,
0100
0100
0010
0010
0100
1000
0010
0000
,
0100
0001
0100
0001
0010
0001
0010
0001
,
0010
0100
1000
0001
1000
1000
0001
0001
,
1000
0000
0000
1000
0100
0000
0000
0100
0010
0000
0000
0010
0001
0000
0000
0001
,
1000
0000
0000
1000
0010
0000
0000
0010
0100
0000
0000
0100
0001
0000
0000
0001
,
0100
0000
0000
0100
1000
0000
0000
1000
0010
0000
0000
0010
0001
0000
0000
0001
,
0100
0000
0000
0100
0010
0000
0000
0010
1000
0000
0000
1000
0001
0000
0000
0001
,
1000
0000
0000
1000
0001
0000
0010
0000
0100
0000
0000
0100
0010
0000
0001
0000
,
0100
0000
0010
0010
0100
0100
0001
1000
,
0100
0000
0000
0100
1000
0000
0010
0000
0100
0000
0000
0100
0001
0000
0010
0000
,
0100
0010
0001
0100
0010
1000
0001
1000
,
0100
1000
0010
0000
0001
0100
0010
0000
,
0001
0100
1000
0000
0010
0001
0100
0000
,
0010
1000
0100
0000
0001
0010
1000
0000
,
0100
0001
0010
0000
1000
0100
0010
0001
,
0100
0000
0000
0010
0100
0000
0001
0000
0010
0000
0000
0100
0010
0000
0001
0000
,
0010
0100
1000
0010
0100
0001
0100
0010
,
1000
0000
0000
1000
0001
0000
0010
0000
0100
0000
0000
0100
1000
0000
0010
0000
,
0100
0001
0100
0010
1000
1000
0001
0001
,
2002
0000
0000
3003
;

//---------------dance-single - Chewi----------------
#NOTES:
     dance-single:
     Chewi:
     Medium:
     7:
     0.247,0.360,0.190,0.152,0.000:
0000
0000
0000
0000
,
0000
0000
0000
0000
,
0000
0000
0000
0000
,
0000
0000
0000
0000
,
1000
0100
0001
0000
,
0001
0010
1000
0000
,
1000
0010
0001
0000
,
0001
0100
1000
0000
,
1001
0000
0100
0000
,
1001
0000
0010
0000
,
0100
0100
0100
0000
,
0010
0010
0010
0000
,
1000
0100
0001
0000
,
0001
0010
1000
0000
,
1000
0001
1001
0000
,
0001
1000
1001
0000
,
1000
1000
1000
0000
0000
0000
0001
0000
,
0000
0100
0000
0010
,
0010
0010
0010
0000
0000
0000
0010
0000
,
0000
1000
0000
0001
,
1000
0100
0010
0001
,
0001
0100
0010
1000
,
0001
1000
0001
0000
,
2002
0000
0000
3003
,
1000
0000
0100
0000
0001
0000
0010
0010
,
0000
0000
0010
0100
,
0010
0000
0001
0000
0100
0000
1000
1000
,
0000
0000
1000
1000
,
0200
0301
0002
0013
,
0110
0000
1001
0000
,
2000
3100
0200
0310
,
0110
0000
1001
0000
,
0001
0001
0001
0000
0000
0000
0100
0000
,
0000
1000
0000
0010
,
0010
0010
0010
0000
0000
0000
1000
0000
,
0000
0100
0000
0001
,
0020
0130
0020
1030
,
1010
0000
0101
0000
,
2000
3100
0002
0013
,
0011
0000
1001
0110
,
2002
0000
0000
3003
;

//---------------dance-single - Chewi----------------
#NOTES:
     dance-single:
     Chewi:
     Easy:
     3:
     0.191,0.232,0.063,0.126,0.000:
0000
0000
0000
0000
,
0000
0000
0000
0000
,
0000
0000
0000
0000
,
0000
0000
0000
0000
,
1000
1000
0010
0000
,
0001
0001
0010
0000
,
1000
1000
0100
0000
,
0001
0001
0100
0000
,
0010
0000
0010
0000
,
0100
0000
0100
0000
,
0001
0000
0001
0000
,
1000
0000
1000
0000
,
0001
1000
0001
0000
,
1000
0001
1000
0000
,
0010
0100
0010
0000
,
0100
0010
0100
0000
,
0001
0000
0010
0000
,
1000
0000
0100
0000
,
1000
0000
0010
0000
,
0001
0000
0100
0000
,
0010
0100
0010
0000
,
0100
0010
0100
0000
,
0001
0001
0100
0000
,
1000
1000
0100
0000
,
0001
0001
0001
0001
,
1000
1000
1000
1000
,
0010
0010
0010
0010
,
0100
0100
0100
0100
,
0200
0300
0200
0300
,
0110
0000
0000
0000
,
0020
0030
0020
0030
,
0110
0000
0000
0000
,
1000
0100
0000
0001
,
0000
0100
0000
1000
,
0010
0001
0000
0010
,
0000
1000
0000
0010
,
0020
0030
0020
0030
,
0110
0000
0000
0000
,
0200
0300
0200
0300
,
0110
0000
0000
0000
,
2002
0000
0000
3003
;

//---------------dance-single - Chewi----------------
#NOTES:
     dance-single:
     Chewi:
     Beginner:
     2:
     0.121,0.180,0.063,0.076,0.000:
0000
0000
0000
0000
,
0000
0000
0000
0000
,
0000
0000
0000
0000
,
0000
0000
0000
0000
,
1000
0000
0000
0000
,
1000
0000
0000
0000
,
0001
0000
0000
0000
,
0001
0000
0000
0000
,
1001
0000
0100
0000
,
0100
0000
0100
0000
,
0010
0000
0010
0000
,
0010
0000
0010
0000
,
1000
0000
1000
0000
,
1000
0000
1000
0000
,
0001
0000
0001
0000
,
0001
0000
0001
0000
,
0110
0000
0000
0000
,
0100
0100
0100
0000
,
1001
0000
0000
0000
,
1000
1000
1000
0000
,
0001
0000
0001
0000
,
0100
0000
0100
0000
,
0001
0000
0001
0000
,
1001
0000
0000
0000
,
2000
0000
0000
3000
,
1000
0000
0000
0000
,
0020
0000
0000
0030
,
0010
0000
0000
0000
,
0001
0000
0001
0000
,
0001
0000
0000
0000
,
0100
0000
0100
0000
,
0100
0000
0000
0000
,
2000
0000
0000
3000
,
1000
0000
0000
0000
,
0002
0000
0000
0003
,
0001
0000
0000
0000
,
0100
0000
0100
0000
,
0100
0000
0000
0000
,
0010
0000
0010
0000
,
0010
0000
0000
0000
,
2002
0000
0000
0000
0000
0000
0000
0000
0000
0000
0000
0000
0000
0000
0000
0000
0000
0000
0000
0000
0000
0000
0000
0000
0000
0000
0000
0000
0000
0000
0000
0000
0000
0000
0000
0000
0000
0000
0000
0000
0000
0000
0000
0000
0000
0000
0000
0000
0000
0000
0000
0000
0000
0000
0000
0000
0000
0000
0000
0000
0000
0000
0000
0000
0000
0000
0000
0000
0000
0000
0000
0000
0000
0000
0000
0000
0000
0000
0000
0000
0000
0000
0000
0000
0000
0000
0000
0000
0000
0000
0000
0000
0000
0000
0000
0000
0000
0000
0000
0000
0000
0000
0000
0000
0000
0000
0000
0000
0000
0000
0000
0000
0000
0000
0000
0000
0000
0000
0000
0000
0000
0000
0000
0000
0000
0000
0000
0000
0000
0000
0000
0000
0000
0000
0000
0000
0000
0000
0000
0000
0000
0000
0000
0000
0003
3000
0000
0000
0000
0000
0000
0000
0000
0000
0000
0000
0000
0000
0000
0000
0000
0000
0000
0000
0000
0000
0000
0000
0000
0000
0000
0000
0000
0000
0000
0000
0000
0000
0000
0000
0000
0000
0000
0000
0000
0000
0000
0000
0000
0000
0000
0000
;
