#TITLE:Sunshine Girl;
#SUBTITLE:;
#ARTIST:moumoon;
#TITLETRANSLIT:;
#SUBTITLETRANSLIT:;
#ARTISTTRANSLIT:;
#GENRE:;
#CREDIT:Chewi☆;
#MENUCOLOR:#FFFF00;
#METERTYPE:DDR X;
#BANNER:Sunshine Girl.png;
#BACKGROUND:Sunshine Girl-bg.png;
#LYRICSPATH:;
#CDTITLE:;
#MUSIC:Sunshine Girl.mp3;
#OFFSET:-0.525;
#SAMPLESTART:49.479;
#SAMPLELENGTH:15.000;
#SELECTABLE:YES;
#LISTSORT:;
#BPMS:0.000=103.000;
#STOPS:;
#BGCHANGES:;
#ATTACKS:;

//---------------dance-single - Chewi----------------
#NOTES:
     dance-single:
     Chewi:
     Hard:
     9:
     0.282,0.300,0.105,0.000,0.038:
0000
0000
0000
0000
,
0000
0000
0000
0000
,
0000
0000
0000
0000
,
0000
0000
0000
0000
,
1000
0100
0010
1000
0100
0010
0001
0100
,
0000
0101
0000
0000
0000
0000
0000
0000
,
0001
0100
0010
0001
0100
0010
1000
0100
,
0000
0100
0100
0000
0000
0000
0000
0000
,
1000
0100
0001
1000
0100
0001
0010
0100
,
0000
0110
0000
0000
0000
0000
0000
0000
,
0001
0010
1000
0001
0010
1000
0010
0100
,
0000
0100
0100
0000
0000
0000
0000
0000
,
0001
0000
0000
0001
1000
0000
0000
0000
1000
0000
1000
0000
0100
0000
0000
0000
,
1000
0000
0000
1000
0001
0000
0000
0000
0001
0000
0001
0000
0100
0000
0000
0000
,
0010
0100
0001
0010
0100
1000
1100
0000
,
1000
0100
0010
0001
0100
0001
0101
0000
,
0100
0000
0000
0100
0010
0000
0000
0000
1000
0000
0010
0000
1000
0000
0000
0000
,
0001
0000
0000
0001
0010
0000
0000
0000
0001
0000
0010
0000
0001
0000
0000
0000
,
0001
0100
0010
1000
0010
1000
1100
0000
,
1000
0100
0010
0001
0100
0001
0011
0000
,
0001
1000
0001
0000
1000
0001
1000
0000
,
0001
1000
0000
1000
0001
0000
0000
0000
0100
0000
0100
0000
0100
0000
0000
0000
,
0010
0100
0001
1000
0100
1000
1100
0000
,
1000
0100
0000
0100
1000
0000
0000
0000
0010
0000
0100
0000
0001
0000
0000
0000
,
0100
0001
0010
0100
1000
0001
1001
0000
,
1000
0100
0010
1000
0100
0010
0001
0100
,
0000
0101
0000
0000
0000
0001
0001
0001
,
0001
0100
0010
0001
0100
0010
1000
0100
,
0000
0100
0100
0000
0001
1000
0001
0000
,
1000
0100
0001
1000
0100
0001
0010
0100
,
0000
0110
0000
0000
0000
0001
0001
0001
,
0001
0010
1000
0001
0010
1000
0010
0100
,
0000
0100
0100
0000
0000
0000
0000
0000
,
1000
0100
1000
0000
0100
0001
0100
0000
,
0001
0010
0001
0000
0010
1000
0010
0000
,
1000
0100
0010
0000
0001
0100
0010
0000
,
1000
0001
0010
0000
0001
1000
0010
0000
,
1001
0000
0000
0000
;

//---------------dance-single - Chewi----------------
#NOTES:
     dance-single:
     Chewi:
     Medium:
     6:
     0.210,0.212,0.048,0.038,0.000: // measure 1
0000
0000
0000
0000
,  // measure 2
0000
0000
0000
0000
,  // measure 3
0000
0000
0000
0000
,  // measure 4
0000
0000
0000
0000
,  // measure 5
1000
0100
0000
0000
0001
0100
0000
0000
,  // measure 6
0010
1000
0100
0001
,  // measure 7
0010
1000
0000
0000
0010
0001
0000
0000
,  // measure 8
0010
0001
0100
1000
,  // measure 9
0010
1000
0000
0000
0010
0100
0000
0000
,  // measure 10
0100
0010
1000
0001
,  // measure 11
0010
0001
0000
0000
0010
0100
0000
0000
,  // measure 12
0100
0010
0001
1000
,  // measure 13
0002
0100
0010
1003
,  // measure 14
2000
0100
0010
3100
,  // measure 15
2000
0001
0010
3001
,  // measure 16
0002
0100
0010
0103
,  // measure 17
0100
0000
0010
0000
0100
0010
0100
0000
,  // measure 18
0010
0000
0100
0000
0010
0100
0010
0000
,  // measure 19
1000
0000
0001
0000
1000
0001
1000
0000
,  // measure 20
0001
0000
1000
0000
0001
1000
0001
0000
,  // measure 21
1000
0100
0010
0001
,  // measure 22
0001
0000
1000
0000
0001
1000
0010
0000
,  // measure 23
0100
0010
0110
0110
,  // measure 24
0100
0000
0010
0000
1000
0100
0010
0000
,  // measure 25
0001
0010
1100
1100
,  // measure 26
1000
0100
0000
0000
0001
0100
0000
0000
,  // measure 27
1000
0010
0100
0001
,  // measure 28
0001
0010
0000
0000
1000
0010
0000
0000
,  // measure 29
1000
0100
0010
0001
,  // measure 30
0001
0100
0000
0000
1000
0100
0000
0000
,  // measure 31
0100
0001
0010
1000
,  // measure 32
1000
0010
0000
0000
0001
0010
0000
0000
,  // measure 33
0010
0100
1000
0001
,  // measure 34
0100
0010
0100
0000
0010
0000
1000
0000
,  // measure 35
1000
0010
1000
0000
0001
0010
0001
0000
,  // measure 36
0001
0100
0001
0000
1000
0000
0100
0000
,  // measure 37
1000
0100
1000
0000
0001
0100
0001
0000
,  // measure 38
1001
0000
0000
0000
;

//---------------dance-single - Chewi----------------
#NOTES:
     dance-single:
     Chewi:
     Beginner:
     2:
     0.082,0.122,0.029,0.000,0.000:
0000
0000
0000
0000
,
0000
0000
0000
0000
,
0000
0000
0000
0000
,
0000
0000
0000
0000
,
1000
0000
1000
0000
,
1000
0000
0000
0000
,
0001
0000
0001
0000
,
0001
0000
0000
0000
,
0010
0000
0010
0000
,
0010
0000
0000
0000
,
0100
0000
0100
0000
,
0100
0000
0000
0000
,
1000
0000
0001
0000
,
1000
0000
0000
0000
,
0001
0000
1000
0000
,
0001
0000
0000
0000
,
0100
0000
0010
0000
,
0100
0000
0000
0000
,
0010
0000
0100
0000
,
0010
0000
0000
0000
,
1000
0000
0001
0000
,
1001
0000
1000
0000
,
0001
0001
0001
0000
,
0100
0000
0100
0000
,
0010
0000
0010
0000
,
1000
0000
1000
0000
,
1000
0000
0000
0000
,
0001
0000
0001
0000
,
0001
0000
0000
0000
,
0100
0000
0100
0000
,
0100
0000
0000
0000
,
0010
0000
0010
0000
,
0010
0000
0000
0000
,
1001
0000
0100
0000
,
0100
0100
0100
0000
,
1001
0000
0010
0000
,
0010
0010
0010
0000
;

//---------------dance-single - Chewi----------------
#NOTES:
     dance-single:
     Chewi:
     Easy:
     3:
     0.146,0.159,0.019,0.114,0.000:
0000
0000
0000
0000
,
0000
0000
0000
0000
,
0000
0000
0000
0000
,
0000
0000
0000
0000
,
2000
3000
0002
0003
,
0100
0100
0100
0000
,
0002
0003
2000
3000
,
0010
0010
0010
0000
,
2000
3000
0200
0300
,
0010
0001
0010
0000
,
0002
0003
0200
0300
,
0010
1000
0010
0000
,
0010
0010
0010
0000
,
0100
0001
0010
0000
,
1000
1000
1000
0000
,
0100
1000
0010
0000
,
0010
0100
0010
0000
,
1000
0100
0010
0000
,
0001
0010
0001
0000
,
0010
0001
0100
0000
,
0010
0010
0100
0100
,
0020
0030
2000
3000
,
1000
0001
1001
0000
,
0002
0003
0020
0030
,
0001
1000
1001
0000
,
0100
0100
0100
0100
,
0100
0000
0000
0000
,
0010
0010
0010
0010
,
0010
0000
0000
0000
,
1000
0100
0010
0001
,
0100
0000
0000
0000
,
0001
0100
0010
1000
,
0100
0000
0000
0000
,
0100
0100
0010
0000
,
0010
0001
0100
1000
,
0010
0010
0100
0000
,
0100
1000
0010
0001
,
0100
0000
0000
0000
;
