#TITLE:Summertime Sadness (Cedric Gervais Remix Edit);
#SUBTITLE:;
#ARTIST:Lana Del Rey;
#TITLETRANSLIT:;
#SUBTITLETRANSLIT:;
#ARTISTTRANSLIT:;
#GENRE:House;
#CREDIT:chewi;
#BANNER:Summertime Sadness (Cedric Gervais Remix Edit).png;
#BACKGROUND:Summertime Sadness (Cedric Gervais Remix Edit)-bg.png;
#LYRICSPATH:;
#CDTITLE:cdtitle.png;
#MUSIC:Summertime Sadness (Cedric Gervais Remix Edit).ogg;
#OFFSET:-0.573000;
#SAMPLESTART:69.126999;
#SAMPLELENGTH:15.000000;
#SELECTABLE:YES;
#BPMS:0.000000=125.999992
;
#STOPS:140.000000=1.429000,
169.000000=1.429000
;
#BGCHANGES:0.000=Summertime Sadness (Cedric Gervais Remix Edit).avi=1.000=1=0=0=StretchNoLoop==CrossFade==,
99999=-nosongbg-=1.000=0=0=0 // don't automatically add -songbackground-
;
#KEYSOUNDS:;
#ATTACKS:;

//---------------dance-single - ----------------
#NOTES:
     dance-single:
     :
     Beginner:
     2:
     0.097462,0.100328,0.010033,0.080262,0.000000,59.000000,1.000000,8.000000,0.000000,0.000000,0.000000,0.097462,0.100328,0.010033,0.080262,0.000000,59.000000,1.000000,8.000000,0.000000,0.000000,0.000000:
0000
0000
0000
0000
,
0000
0000
0000
0000
,
0000
0000
0000
0000
,
0000
0000
0000
0000
,
0001
0000
0000
0000
,
0001
0000
0000
0000
,
0001
0000
0000
0000
,
0001
0000
0000
0000
,
1000
0000
0000
0000
,
1000
0000
0000
0000
,
1000
0000
0000
0000
,
1000
0000
0000
0000
,
0100
0000
0000
0000
,
0100
0000
0000
0000
,
0100
0000
0000
0000
,
0100
0000
0000
0000
,
0010
0000
0000
0000
,
0010
0000
0000
0000
,
0010
0000
0000
0000
,
0010
0000
0000
0000
,
0020
0000
0000
0030
,
0010
0000
0000
0000
,
0200
0000
0000
0300
,
0100
0000
0000
0000
,
0002
0000
0000
0003
,
0001
0000
0000
0000
,
2000
0000
0000
3000
,
1000
0000
0000
0000
,
1000
0000
0000
0000
,
0100
0000
0000
0000
,
0010
0000
0000
0000
,
0001
0000
0000
0000
,
0001
0000
0000
0000
,
0100
0000
0000
0000
,
0010
0000
0000
0000
,
1000
2000
0000
0000
,
3000
1000
0000
1000
,
0000
0002
0000
0000
,
0003
0001
0000
0001
,
0000
0200
0000
0000
,
0300
0100
0000
0100
,
0000
0020
0000
0000
,
0030
0010
0010
0000
,
0001
0000
0010
0000
,
0100
0000
1000
0000
,
1000
0000
0010
0000
,
0100
0000
0001
0000
,
0001
0000
1000
0000
,
0100
0000
0010
0000
,
0100
0000
0010
0000
,
0110
0000
0000
0000
;

//---------------dance-single - ----------------
#NOTES:
     dance-single:
     :
     Easy:
     4:
     0.206389,0.226867,0.050164,0.140459,0.000000,125.000000,5.000000,14.000000,0.000000,0.000000,0.000000,0.206389,0.226867,0.050164,0.140459,0.000000,125.000000,5.000000,14.000000,0.000000,0.000000,0.000000:
0000
0000
0000
0000
,
0000
0000
0000
0000
,
0000
0000
0000
0000
,
0000
0000
0000
0000
,
2000
0000
0000
3000
,
0200
0000
0000
0300
,
0020
0000
0000
0030
,
0002
0000
0000
0003
,
2000
0000
0000
3000
,
0020
0000
0000
0030
,
0200
0000
0000
0300
,
0002
0000
0000
0003
,
1000
0000
1000
0000
,
1000
0001
0010
0000
,
0010
0000
0100
0000
,
0010
0100
1000
0000
,
0001
0000
0100
0000
,
0010
0100
0001
0000
,
1000
0000
0010
0000
,
1000
0001
0100
0000
,
0100
0100
0101
0100
,
0010
0010
0010
0010
,
1000
1000
1000
1000
,
0001
0001
0001
0001
,
0010
0010
0010
0010
,
0100
0100
0100
0100
,
1000
1000
1000
1000
,
0100
0100
0100
0100
,
0020
0000
0000
0000
,
0031
0010
0100
1000
,
0200
0000
0000
0000
,
1300
0100
0010
0001
,
2000
0000
0000
0000
,
3001
0001
1000
1000
,
0020
0000
0200
0000
,
0330
0010
1000
0010
,
0000
0100
0000
0100
,
0000
0100
0001
0100
,
0000
0001
0000
1001
,
0000
1000
0100
1000
,
0000
0100
0000
0010
,
0000
0100
0010
0001
,
0000
0010
0001
0001
,
0001
0001
1000
0001
,
1000
1001
1000
1000
,
1000
1000
0001
1000
,
0001
1001
0100
0100
,
0100
0100
0010
0100
,
0010
0110
0010
0010
,
0010
0010
0020
0000
,
0000
0030
0000
0000
;

//---------------dance-single - ----------------
#NOTES:
     dance-single:
     :
     Medium:
     7:
     0.249387,0.277282,0.050164,0.140459,0.000000,155.000000,5.000000,14.000000,0.000000,0.000000,0.000000,0.249387,0.277282,0.050164,0.140459,0.000000,155.000000,5.000000,14.000000,0.000000,0.000000,0.000000:
0000
0000
0000
0000
,
0000
0000
0000
0000
,
0000
0000
0000
0000
,
0000
0000
0000
0000
,
2000
0000
0000
0000
,
3200
0000
0000
0000
,
0302
0000
0000
0000
,
0023
0000
0000
0000
,
2030
0000
0000
0000
,
3200
0000
0000
0000
,
0302
0000
0000
0000
,
0023
0000
0000
0000
,
1030
0000
0000
0010
1000
0000
0000
0000
,
0010
0100
0001
0000
,
0100
0000
0000
0001
0100
0000
0000
0000
,
0001
1000
0100
0000
,
0010
0000
0000
0100
0010
0000
0000
0000
,
0100
0010
0001
0000
,
1000
0000
1000
0000
0100
0000
0100
0010
,
0000
0000
0000
0000
,
0001
1000
0001
1000
,
0010
0100
0010
0100
,
0001
0100
0001
0100
,
0010
1000
0001
0010
,
0100
0010
0100
0010
,
0001
0010
0001
0010
,
0100
1000
0100
1000
,
0010
0100
0001
1000
,
0002
1000
1000
1003
,
1000
0000
0100
0000
0010
0100
0010
0000
,
0200
1000
1000
1300
,
1000
0000
0010
0000
0100
0001
0100
0000
,
0002
0100
0100
0103
,
0100
0000
0010
0000
1000
0001
1000
0000
,
0002
0010
1000
0100
,
1003
1000
0001
0010
,
0100
1000
0001
1000
,
1001
1000
0010
0100
,
0001
0000
0100
0000
0010
0000
1000
1000
,
1000
1000
0100
0010
,
0001
1000
0100
1000
,
1001
1000
0010
0100
,
0001
0100
0010
0010
,
0001
0001
0100
0100
,
1000
1100
0001
1000
,
0100
0010
0001
1000
,
0100
0100
0100
0000
0010
0000
0001
0000
,
1000
0100
1000
0001
,
0100
0110
0010
0100
,
0001
1000
2002
0000
,
0000
3003
0000
0000
;

//---------------dance-single - ----------------
#NOTES:
     dance-single:
     :
     Hard:
     9:
     0.402746,0.401312,0.200656,0.200656,0.000000,241.000000,20.000000,20.000000,0.000000,0.000000,0.000000,0.402746,0.401312,0.200656,0.200656,0.000000,241.000000,20.000000,20.000000,0.000000,0.000000,0.000000:
// measure 0
0000
0000
0000
0000
,  // measure 1
0000
0000
0000
0000
,  // measure 2
0000
0000
0000
0000
,  // measure 3
0000
0000
0000
0000
,  // measure 4
1000
0100
0010
0001
,  // measure 5
1000
0100
1000
0000
0001
0100
0001
0000
,  // measure 6
0100
0010
1000
0001
,  // measure 7
1000
0010
1000
0000
0001
0010
0001
0000
,  // measure 8
0010
0100
1000
0001
,  // measure 9
1000
0100
1000
0000
0001
0010
0001
0000
,  // measure 10
0010
0100
1000
0001
,  // measure 11
1000
0001
1000
0000
0001
1000
0001
0000
,  // measure 12
1001
0000
0000
1000
1000
0000
0000
0000
,  // measure 13
0001
0010
0100
1000
0001
0000
0000
0000
,  // measure 14
1001
0000
0000
1000
1000
0000
0000
0000
,  // measure 15
1000
0010
0100
0001
0100
0000
0000
0000
,  // measure 16
0100
0010
1000
0001
,  // measure 17
0010
1000
0100
0001
,  // measure 18
0010
0001
0010
0000
0100
1000
0100
1000
,  // measure 19
0002
1000
0010
1003
,  // measure 20
0001
0100
0001
0000
0100
0001
0100
0000
,  // measure 21
0001
1001
1000
1001
,  // measure 22
1000
0100
1000
0000
0100
1000
0100
0000
,  // measure 23
1000
1001
0001
1001
,  // measure 24
0100
0010
0100
0000
0010
0100
0010
0000
,  // measure 25
0010
1010
0001
0101
,  // measure 26
1000
0100
1000
0000
0001
0010
0001
0000
,  // measure 27
0010
0110
1000
1001
,  // measure 28
0001
0010
0001
0010
0001
0010
0001
0010
,  // measure 29
0100
1000
0100
1000
0100
1000
0100
0000
,  // measure 30
1000
0001
1000
0001
1000
0001
1000
0001
,  // measure 31
0100
0010
0100
0010
0100
0010
0100
0000
,  // measure 32
0010
1000
0010
1000
0010
1000
0010
1000
,  // measure 33
0001
0100
0001
0100
0001
0100
0001
0000
,  // measure 34
1001
0000
0000
0000
0001
1000
0100
0010
,  // measure 35
0010
0020
0032
0023
,  // measure 36
0230
0000
1300
0001
0010
0100
1000
0010
,  // measure 37
1010
2000
3020
0230
,  // measure 38
0302
0000
0103
0010
1000
0001
0010
0100
,  // measure 39
0100
0020
0230
0320
,  // measure 40
0032
0000
1003
0100
0010
0001
1000
0100
,  // measure 41
1100
2000
3002
0203
,  // measure 42
0320
0130
0010
1010
,  // measure 43
0100
0000
0101
0000
1000
0100
0010
0000
,  // measure 44
0001
0100
0010
0000
0001
0000
0101
0000
,  // measure 45
1000
0000
1010
0000
0100
0010
1000
0001
,  // measure 46
1000
1010
1000
1100
,  // measure 47
0001
0000
0101
0000
0001
0100
1000
0000
,  // measure 48
0001
0010
1000
0000
2000
0000
3200
0000
,  // measure 49
0310
0001
1000
0100
0200
0000
0000
0000
,  // measure 50
0300
0000
0000
0000
;
