#TITLE:Stupid Shit (toMOOSE Remix);
#SUBTITLE:;
#ARTIST:Girlcious;
#TITLETRANSLIT:;
#SUBTITLETRANSLIT:;
#ARTISTTRANSLIT:;
#GENRE:;
#CREDIT:Chewphoria~;
#MENUCOLOR:;
#METERTYPE:DDR;
#BANNER:Stupid Shit (toMOOSE Remix).PNG;
#BACKGROUND:Stupid Shit (toMOOSE Remix)-bg.PNG;
#LYRICSPATH:;
#CDTITLE:;
#MUSIC:Stupid Shit (toMOOSE Remix).MP3;
#OFFSET:-3.460;
#SAMPLESTART:37.735;
#SAMPLELENGTH:15.000;
#SELECTABLE:YES;
#LISTSORT:;
#DISPLAYBPM:140.000;
#BPMS:0.000=140.040;
#STOPS:;
#BGCHANGES:;
#ATTACKS:;

//---------------dance-single - Chewphoria~----------------
#NOTES:
     dance-single:
     Chewphoria~:
     Hard:
     12:
     0.534,0.480,0.402,0.074,0.185: // measure 1
1000
0000
0000
1000
0000
0000
1000
0000
0000
1000
0000
0000
1000
0000
0010
0000
,  // measure 2
0100
0000
0000
0100
0000
0000
0100
0000
0000
0100
0000
0000
0100
0000
0010
0000
,  // measure 3
0001
0000
0000
0001
0000
0000
0001
0000
0000
0001
0000
0000
0001
0000
0100
0000
,  // measure 4
0010
0000
0000
0010
0000
0000
0010
0000
0000
0010
0000
0000
0010
0000
0001
0000
,  // measure 5
0100
1000
0010
0000
0010
0000
0110
0000
,  // measure 6
0100
0001
0100
0010
1000
0000
1001
0000
,  // measure 7
0010
0100
1000
0000
0010
0100
0001
0000
,  // measure 8
1000
0001
0010
0001
1000
0010
0100
0001
,  // measure 9
0102
0000
1000
0000
0013
0000
1000
0100
,  // measure 10
0010
0100
1000
0010
0100
0000
0101
0000
,  // measure 11
0010
0001
0100
0000
0010
1000
0100
0000
,  // measure 12
1000
0100
0010
0001
0100
0010
1000
0001
,  // measure 13
1001
0000
0010
0010
0100
0000
1000
0100
,  // measure 14
0101
0000
0010
1000
1010
0000
0011
0000
,  // measure 15
1000
0100
0001
0010
0001
0100
1000
0010
,  // measure 16
0100
0000
0101
1100
0000
1000
0100
0010
,  // measure 17
0011
0000
0100
0010
1100
0000
0010
0001
,  // measure 18
0010
0100
1000
0010
0101
0000
1100
0000
,  // measure 19
1000
0001
0010
0100
1000
0001
0100
0010
,  // measure 20
1000
1000
0010
0010
0100
0100
0001
0010
,  // measure 21
0100
1000
1100
0000
0101
0000
0010
0100
,  // measure 22
0001
0010
0100
1000
0010
0100
0001
0100
,  // measure 23
0010
1000
1010
0000
0011
0000
0010
0000
,  // measure 24
0001
0010
0100
1000
0010
0100
0001
0100
,  // measure 25
0010
1000
1010
0000
0011
0000
0100
0000
,  // measure 26
0001
0100
0010
1000
0001
0000
1100
0000
,  // measure 27
1000
0100
0001
0000
0001
0010
1000
0000
,  // measure 28
1000
0010
0100
1000
0010
0100
0010
0001
,  // measure 29
0011
0000
0000
1000
0100
0000
0000
0000
0101
0000
0000
1000
0010
0000
0000
0000
,  // measure 30
1001
0000
0000
1000
0001
0000
0000
0001
1000
0000
0000
0010
0200
0000
0000
0000
,  // measure 31
0300
0000
1010
0100
0101
0000
1001
0000
,  // measure 32
2002
0000
3003
0000
,  // measure 33
1000
0000
0000
0100
0000
0000
0010
0000
0000
0001
0000
0000
1001
0000
0000
0000
,  // measure 34
0001
0000
0000
0100
0000
0000
0010
0000
0000
1000
0000
0000
1001
0000
0000
0000
,  // measure 35
0100
0000
0000
0010
0000
0000
0100
0000
0000
0010
0000
0000
1010
0000
0000
0000
,  // measure 36
1000
0000
0000
0100
0000
0000
0010
0000
0000
0001
0000
0000
0011
0000
0000
0000
,  // measure 37
0001
0000
0000
0100
0000
0000
1000
0000
0000
0010
0000
0000
0001
0000
0000
0000
,  // measure 38
0001
0000
0000
0010
0000
0000
1000
0000
0000
0100
0000
0000
0001
0000
0000
0000
,  // measure 39
0010
0000
0000
0100
0000
0000
0010
0000
0000
0100
0000
0000
0010
0000
0000
0000
,  // measure 40
0001
0000
0000
1000
0000
0000
0001
0000
0000
1000
0000
0000
0001
0000
0100
0000
,  // measure 41
0010
0000
1000
0010
0100
0000
0001
1000
,  // measure 42
0001
0000
1000
0001
1000
0000
0110
0000
,  // measure 43
0010
1000
0100
0000
0010
1000
0100
0000
,  // measure 44
0010
0001
0100
0010
0100
0001
0010
0100
,  // measure 45
1100
0000
1000
0010
1010
0000
0100
0001
,  // measure 46
0100
0010
1000
0001
0011
0000
1100
0000
,  // measure 47
1000
1000
0001
0001
0010
0010
0100
0100
,  // measure 48
1000
0010
0001
0010
1000
0100
0001
0010
,  // measure 49
0100
0100
0101
0000
1010
0000
0010
0000
,  // measure 50
1000
0100
0010
0001
0010
0100
1000
0010
,  // measure 51
0100
0001
0101
0000
1010
0000
1000
0000
,  // measure 52
0010
1000
0100
0010
0001
0010
0100
1000
,  // measure 53
0010
0100
0101
0000
1010
0000
0000
0000
,  // measure 54
1000
0001
0010
0100
1000
0100
1100
0000
,  // measure 55
1000
0100
0010
0000
0001
0100
0010
0000
,  // measure 56
1000
0001
0010
0001
1000
0010
0100
0000
,  // measure 57
0101
0000
0000
0100
0010
0000
0000
0010
1000
0000
0000
1000
0100
0000
0000
0100
,  // measure 58
0010
0000
0000
0010
0001
0000
0000
0001
0010
0000
0100
0000
1100
0000
0000
0000
,  // measure 59
0001
0100
0010
0100
0001
0010
0100
1000
,  // measure 60
2002
0000
0000
3003
,  // measure 61
1000
0000
0000
1000
0010
0000
0000
0010
0100
0000
0000
0100
0001
0000
0000
0001
,  // measure 62
0010
0000
0000
0010
0100
0000
0000
0100
1000
0000
0000
1000
0001
0000
0000
0000
,  // measure 63
0001
0000
0000
1000
0010
0000
1000
0000
0001
0000
0010
0000
0100
0000
1000
0000
,  // measure 64
1002
0010
0100
1003
,  // measure 65
2010
0000
0000
0010
0000
0000
0010
0000
0000
0010
0000
0000
0020
0000
0000
0000
,  // measure 66
3030
0000
0000
0000
;

//---------------dance-single - Chewphoria~----------------
#NOTES:
     dance-single:
     Chewphoria~:
     Medium:
     9:
     0.392,0.454,0.287,0.172,0.041: // measure 1
0010
0000
0000
0010
0000
0000
0010
0000
0000
0000
0000
0000
0000
0000
0000
0000
,  // measure 2
0100
0000
0000
0100
0000
0000
0100
0000
0000
0000
0000
0000
0000
0000
0000
0000
,  // measure 3
0001
0000
0000
0001
0000
0000
0001
0000
0000
0000
0000
0000
0000
0000
0000
0000
,  // measure 4
1000
0000
0000
1000
0000
0000
1000
0000
0000
0000
0000
0000
0000
0000
0000
0000
,  // measure 5
1000
0100
0001
0000
0002
0000
0003
0000
,  // measure 6
0001
1000
0001
0000
1000
0001
1000
0000
,  // measure 7
0010
0100
0001
1000
,  // measure 8
0100
0010
0001
0100
,  // measure 9
1000
0010
1000
0000
0020
0000
0030
0000
,  // measure 10
1000
1100
0001
0101
,  // measure 11
0010
1000
0100
0000
0010
0001
0100
0000
,  // measure 12
1000
0100
0001
0010
,  // measure 13
1000
0010
1000
0000
0100
0000
0100
0000
,  // measure 14
0100
0001
0100
0000
0010
0000
0010
0000
,  // measure 15
0001
0010
0001
0000
1000
0000
0100
0000
,  // measure 16
0001
0100
0001
0000
0100
0000
1000
0000
,  // measure 17
0010
0100
0001
0000
2000
0000
3000
0000
,  // measure 18
0010
0100
1000
0000
0002
0000
0003
0000
,  // measure 19
0101
1100
1010
0011
,  // measure 20
0011
1010
1100
0101
,  // measure 21
0100
0010
0100
0000
0220
0000
0330
0000
,  // measure 22
0010
1000
0100
0001
,  // measure 23
0010
0100
0010
0000
0220
0000
0330
0000
,  // measure 24
0010
0001
0100
1000
,  // measure 25
0010
0100
0010
0000
0220
0000
0330
0000
,  // measure 26
1000
1100
0001
0011
,  // measure 27
0100
0010
0100
0000
0010
0100
0010
0000
,  // measure 28
1002
0100
0010
1003
,  // measure 29
1100
0000
0100
0000
0100
0100
0100
0000
,  // measure 30
0001
0000
0001
0000
0001
0001
0001
0000
,  // measure 31
0010
0000
0010
0000
0010
0010
0010
0000
,  // measure 32
1000
0000
1000
0000
1000
1000
1000
0000
,  // measure 33
0100
0000
0000
0100
0000
0000
0100
0000
0000
0000
0000
0000
0000
0000
0000
0000
,  // measure 34
0001
0000
0000
0001
0000
0000
0001
0000
0000
0000
0000
0000
0000
0000
0000
0000
,  // measure 35
0010
0000
0000
0010
0000
0000
0010
0000
0000
0000
0000
0000
0000
0000
0000
0000
,  // measure 36
1000
0000
0000
1000
0000
0000
1000
0000
0000
0000
0000
0000
0000
0000
0000
0000
,  // measure 37
1000
0000
0000
0100
0000
0000
1001
0000
0000
0000
0000
0000
0000
0000
0000
0000
,  // measure 38
0001
0000
0000
0100
0000
0000
1001
0000
0000
0000
0000
0000
0000
0000
0000
0000
,  // measure 39
0010
1000
0010
0000
0010
0001
0010
0000
,  // measure 40
0001
1000
0001
1000
0000
0000
0000
0000
,  // measure 41
1000
0010
1000
0000
0001
0010
0001
0000
,  // measure 42
0100
1000
0010
0001
,  // measure 43
0010
1100
0100
1010
,  // measure 44
0100
0001
0100
0000
0010
0000
1001
0000
,  // measure 45
0001
0011
1000
1100
,  // measure 46
0001
1000
0001
0000
1000
0001
1000
0000
,  // measure 47
0010
1000
0100
0001
,  // measure 48
0010
0001
0100
1000
,  // measure 49
0010
0010
0010
0000
0220
0000
0330
0000
,  // measure 50
0100
0001
0100
0000
1000
0000
0010
0000
,  // measure 51
1000
0010
1000
0000
2002
0000
3003
0000
,  // measure 52
1000
0010
0001
0100
,  // measure 53
1000
0010
1000
0000
2002
0000
3003
0000
,  // measure 54
1000
0001
1000
0000
0010
0000
0100
0000
,  // measure 55
0010
0100
0010
0000
0100
0000
0001
0000
,  // measure 56
0010
1000
0100
0001
,  // measure 57
0010
0100
0010
0001
0010
0000
0100
0000
,  // measure 58
1000
0100
0010
0100
1000
0000
0010
0000
,  // measure 59
0100
0101
1010
1001
,  // measure 60
2002
0000
0000
3003
,  // measure 61
1000
0100
0010
0100
1000
0000
1010
0000
,  // measure 62
1000
0010
0100
0001
0100
0000
0110
0000
,  // measure 63
0100
0010
0100
0000
0010
0100
0010
0000
,  // measure 64
1001
0100
1000
0010
,  // measure 65
2020
0000
0000
0000
,  // measure 66
3030
0000
0000
0000
;

//---------------dance-single - Chewphoria~----------------
#NOTES:
     dance-single:
     Chewphoria~:
     Easy:
     6:
     0.307,0.347,0.156,0.378,0.000: // measure 1
0002
0000
0000
0000
,  // measure 2
0000
0000
0000
0003
,  // measure 3
2000
0000
0000
0000
,  // measure 4
0000
0000
0000
3000
,  // measure 5
1000
0010
1000
0010
,  // measure 6
0001
0010
0001
0010
,  // measure 7
0001
0100
0001
0100
,  // measure 8
1000
0100
1000
0100
,  // measure 9
0002
1000
1000
1003
,  // measure 10
2000
0001
0001
3001
,  // measure 11
0020
1030
0020
0130
,  // measure 12
0020
0031
0020
0030
,  // measure 13
0011
0100
0100
0000
,  // measure 14
1010
0100
0100
0000
,  // measure 15
2000
0001
0010
0001
,  // measure 16
3002
0000
2003
0000
,  // measure 17
3020
0130
0001
0000
,  // measure 18
0020
1030
0100
0000
,  // measure 19
0010
0001
0100
1000
,  // measure 20
0010
1000
0100
0001
,  // measure 21
0110
0110
0020
0030
,  // measure 22
1000
0001
1000
0001
,  // measure 23
1001
1001
0001
0000
,  // measure 24
0100
0010
1000
0100
,  // measure 25
0011
0011
0020
0030
,  // measure 26
0100
0001
0100
0000
,  // measure 27
0100
1000
0100
0000
,  // measure 28
1000
0001
0100
0010
,  // measure 29
2200
0000
0000
0000
,  // measure 30
0000
0000
0000
3300
,  // measure 31
0202
0000
0000
0000
,  // measure 32
0000
0000
0000
0303
,  // measure 33
0020
0000
0000
1030
,  // measure 34
2000
0000
0000
3001
,  // measure 35
0002
0000
0000
0013
,  // measure 36
0020
0000
0000
0031
,  // measure 37
0002
0000
0000
0103
,  // measure 38
0200
0000
0000
0310
,  // measure 39
0020
0000
0000
1030
,  // measure 40
2000
0000
0000
3001
,  // measure 41
0110
1000
0110
0001
,  // measure 42
0100
1000
0010
0100
,  // measure 43
0102
0100
0100
0103
,  // measure 44
2000
0001
0001
3001
,  // measure 45
1000
1010
0001
0101
,  // measure 46
1000
0100
0001
0010
,  // measure 47
2000
0010
0010
3010
,  // measure 48
0002
0100
0100
0103
,  // measure 49
1000
0001
2000
3000
,  // measure 50
0001
0010
0100
1000
,  // measure 51
0010
0100
0020
0030
,  // measure 52
1000
0010
0100
0001
,  // measure 53
0010
0100
0200
0300
,  // measure 54
1100
0101
0101
0000
,  // measure 55
0001
0010
1000
0100
,  // measure 56
0001
0100
1000
0010
,  // measure 57
0002
0100
0100
0103
,  // measure 58
2000
0010
0010
3010
,  // measure 59
0020
0130
2000
3001
,  // measure 60
0020
0001
0001
0031
,  // measure 61
0002
0100
0100
0103
,  // measure 62
2000
0010
0010
3010
,  // measure 63
0020
0130
0020
1030
,  // measure 64
2000
0100
0100
3100
,  // measure 65
2002
0000
0000
0000
,  // measure 66
3003
0000
0000
0000
;

//---------------dance-single - Chewphoria~----------------
#NOTES:
     dance-single:
     Chewphoria~:
     Beginner:
     3:
     0.168,0.184,0.066,0.025,0.000: // measure 1
2000
0000
0000
3000
,  // measure 2
1000
0000
0000
0000
,  // measure 3
0002
0000
0000
0003
,  // measure 4
0001
0000
0000
0000
,  // measure 5
0010
0010
0000
0000
,  // measure 6
0100
0100
0000
0000
,  // measure 7
0010
0010
0000
0000
,  // measure 8
0100
0100
0000
0000
,  // measure 9
1000
1000
0000
0000
,  // measure 10
0001
0001
0000
0000
,  // measure 11
1000
1000
0000
0000
,  // measure 12
0001
0001
0000
0000
,  // measure 13
0010
0000
0100
0000
,  // measure 14
0010
0000
1000
0000
,  // measure 15
0100
0000
0001
0000
,  // measure 16
0010
0000
0001
0000
,  // measure 17
0010
0000
0100
0000
,  // measure 18
1000
0000
0100
0000
,  // measure 19
0001
0000
0010
0000
,  // measure 20
1000
0000
0010
0000
,  // measure 21
0100
0100
0100
0000
,  // measure 22
0001
0000
1001
0000
,  // measure 23
1000
1000
1000
0000
,  // measure 24
0010
0000
0110
0000
,  // measure 25
0010
0010
0010
0000
,  // measure 26
0100
0000
0110
0000
,  // measure 27
0001
0001
0001
0000
,  // measure 28
1000
0000
1001
0000
,  // measure 29
2000
0000
0000
0000
,  // measure 30
0000
0000
0000
3000
,  // measure 31
0000
0000
1000
0000
,  // measure 32
1000
0000
0000
0000
,  // measure 33
0010
0010
0000
0000
,  // measure 34
1000
1000
0000
0000
,  // measure 35
0010
0010
0000
0000
,  // measure 36
0001
0001
0000
0000
,  // measure 37
0100
0100
0000
0000
,  // measure 38
0001
0001
0000
0000
,  // measure 39
1000
1000
0000
0000
,  // measure 40
0100
0100
0000
0000
,  // measure 41
0010
0000
0100
0000
,  // measure 42
1000
0000
0010
0000
,  // measure 43
0001
0000
0100
0000
,  // measure 44
1000
0000
0010
0000
,  // measure 45
0010
0000
0100
0000
,  // measure 46
0001
0000
0100
0000
,  // measure 47
1000
0000
0010
0000
,  // measure 48
0001
0000
1000
0000
,  // measure 49
1000
1000
1000
0000
,  // measure 50
1000
0000
1001
0000
,  // measure 51
0001
0001
0001
0000
,  // measure 52
0001
0000
1001
0000
,  // measure 53
0100
0100
0100
0000
,  // measure 54
0100
0000
0110
0000
,  // measure 55
0010
0000
1000
0000
,  // measure 56
0100
0100
0100
0000
,  // measure 57
0010
0000
0001
0000
,  // measure 58
0100
0100
0100
0000
,  // measure 59
1000
0000
0010
0000
,  // measure 60
0100
0100
0100
0000
,  // measure 61
0010
0000
1000
0000
,  // measure 62
0001
0001
0001
0000
,  // measure 63
1000
0000
0100
0000
,  // measure 64
0010
0010
0010
0000
,  // measure 65
0110
0000
0000
0000
;
