#VERSION:0.82;
#TITLE:Stupid Hoe;
#SUBTITLE:;
#ARTIST:Nicki Minaj;
#TITLETRANSLIT:;
#SUBTITLETRANSLIT:;
#ARTISTTRANSLIT:;
#GENRE:Hip-Hop/Rap;
#ORIGIN:;
#CREDIT:chewi;
#BANNER:Stupid Hoe.png;
#BACKGROUND:Stupid Hoe-bg.png;
#PREVIEWVID:;
#JACKET:Stupid Hoe-jacket.png;
#CDIMAGE:;
#DISCIMAGE:;
#LYRICSPATH:;
#CDTITLE:cdtitle.png;
#MUSIC:Stupid Hoe.ogg;
#OFFSET:-0.064000;
#SAMPLESTART:67.264000;
#SAMPLELENGTH:15.000000;
#SELECTABLE:YES;
#BPMS:0.000=200.000,
96.000=100.000,
112.000=200.000,
144.000=400.000,
208.000=100.000,
224.000=200.000,
288.000=100.000,
304.000=200.000,
368.000=400.000,
432.000=25.000,
433.000=100.000;
#STOPS:;
#DELAYS:;
#WARPS:;
#TIMESIGNATURES:0.000=4=4;
#TICKCOUNTS:0.000=4;
#COMBOS:0.000=1;
#SPEEDS:0.000=1.000=0.000=0;
#SCROLLS:0.000=1.000;
#FAKES:;
#LABELS:0.000=Song Start;
#BGCHANGES:32.000=Stupid Hoe.avi=1.000=1=0=0=StretchNoLoop==CrossFade==,
99999=-nosongbg-=1.000=0=0=0 // don't automatically add -songbackground-
;
#KEYSOUNDS:;
#ATTACKS:
;

//---------------dance-single - ----------------
#NOTEDATA:;
#CHARTNAME:;
#STEPSTYPE:dance-single;
#DESCRIPTION:;
#CHARTSTYLE:Pad;
#DIFFICULTY:Beginner;
#METER:4;
#RADARVALUES:0.152441,0.208778,0.069593,0.146918,0.000000,110.000000,9.000000,19.000000,0.000000,0.000000,0.000000,0.000000,0.000000,0.152441,0.208778,0.069593,0.146918,0.000000,110.000000,9.000000,19.000000,0.000000,0.000000,0.000000,0.000000,0.000000;
#CREDIT:chewi;
#NOTES:
0000
0000
0000
0000
,
0000
0000
0000
0000
,
0000
0000
0000
0000
,
0000
0000
0000
0000
,
0010
0000
0010
0000
,
0010
0000
0010
0000
,
0100
0000
0100
0000
,
0100
0000
0100
0000
,
0002
0000
0000
0000
,
0000
0000
0000
0003
,
2000
0000
0000
0000
,
0000
0000
0000
3000
,
0020
0000
0000
0000
,
0000
0000
0000
0030
,
0200
0000
0000
0000
,
0300
0000
0000
0000
,
0001
0000
0000
0000
,
0001
0000
0000
0000
,
1000
0000
0000
0000
,
1000
0000
0000
0000
,
0100
0000
0000
0000
,
0100
0000
0000
0000
,
0010
0000
0000
0000
,
0010
0000
0000
0000
,
0110
0000
0010
0000
,
0100
0000
0010
0000
,
1001
0000
0001
0000
,
1000
0000
0001
0000
,
1000
1000
1000
0000
,
1000
0000
0000
0000
,
0001
0001
0001
0000
,
0001
0000
0000
0000
,
0010
0010
0010
0000
,
0010
0000
0000
0000
,
0100
0100
0100
0000
,
0100
0000
0000
0000
,
0200
0000
0000
0000
,
0000
0000
0000
0000
,
0000
0000
0000
0000
,
0000
0000
0000
0000
,
0000
0000
0000
0000
,
0000
0000
0000
0000
,
0000
0000
0000
0000
,
0000
0000
0000
0000
,
0000
0000
0000
0000
,
0000
0000
0000
0000
,
0000
0000
0000
0000
,
0000
0000
0000
0000
,
0000
0000
0000
0000
,
0000
0000
0000
0000
,
0300
0000
0000
0000
,
0000
0000
0000
0000
,
0010
0000
0000
0000
,
0110
0000
0000
0000
,
1001
0000
0000
0000
,
0110
0000
0000
0000
,
0100
0000
0100
0000
,
0100
0000
0100
0000
,
0010
0000
0010
0000
,
0010
0000
0010
0000
,
1000
0000
1000
0000
,
1000
0000
1000
0000
,
0001
0000
0001
0000
,
0001
0000
0001
0000
,
0001
0000
0001
0000
,
1000
0000
1000
0000
,
0100
0000
0100
0000
,
0010
0000
0010
0000
,
0001
0000
0001
0000
,
1000
0000
1000
0000
,
0010
0000
0010
0000
,
0100
0000
0100
0000
,
0200
0000
0000
0300
,
0100
0100
0100
0000
,
0020
0000
0000
0030
,
0010
0010
0010
0000
,
0010
0000
0010
0000
,
0010
0000
0000
0000
,
1000
0000
1000
0000
,
1000
0000
0000
0000
,
0001
0000
0001
0000
,
0001
0000
0000
0000
,
1000
0000
1000
0000
,
1000
0000
0000
0000
,
0002
0000
0000
0000
,
0000
0000
0000
0003
,
0002
0000
0000
0000
,
0000
0000
0000
0003
,
2000
0000
0000
0000
,
0000
0000
0000
3000
,
2000
0000
0000
0000
,
0000
0000
3000
0000
,
2002
0000
0000
0000
,
0000
0000
0000
0000
,
0000
0000
3003
0000
,
0000
0000
0000
0000
,
0220
0000
0000
0000
,
0000
0000
0000
0000
,
0000
0000
0330
0000
,
0000
0000
0000
0000
,
2002
0000
0000
0000
,
0000
0000
0000
0000
,
0000
0000
3003
0000
,
0000
0000
0000
0000
,
0220
0000
0000
0000
,
0000
0000
0000
0000
,
0000
0000
0330
0000
,
0000
0000
0000
0000
,
0010
0000
0000
0000
;

//---------------dance-single - ----------------
#NOTEDATA:;
#CHARTNAME:;
#STEPSTYPE:dance-single;
#DESCRIPTION:;
#CHARTSTYLE:Pad;
#DIFFICULTY:Easy;
#METER:7;
#RADARVALUES:0.262906,0.334045,0.061860,0.108255,0.000000,216.000000,8.000000,14.000000,0.000000,0.000000,0.000000,0.000000,0.000000,0.262906,0.334045,0.061860,0.108255,0.000000,216.000000,8.000000,14.000000,0.000000,0.000000,0.000000,0.000000,0.000000;
#CREDIT:chewi;
#NOTES:
0000
0000
0000
0000
,
0000
0000
0000
0000
,
0000
0000
0000
0000
,
0000
0000
0000
0000
,
0000
0000
0000
0000
,
0000
0000
0000
0000
,
0000
0000
0000
0000
,
0000
0000
0000
0000
,
1000
1000
1000
1000
,
1000
1000
1000
1000
,
0001
0001
0001
0001
,
0001
0001
0001
0001
,
0100
0100
0100
0100
,
0100
0100
0100
0100
,
0010
0010
0010
0010
,
0000
0000
0000
0000
,
0020
0000
0000
0000
,
2030
0000
0000
0000
,
3200
0000
0000
0000
,
0302
0000
0000
0000
,
0023
0000
0000
0000
,
2030
0000
0000
0000
,
3200
0000
0000
0000
,
2300
0000
0000
0000
,
3001
1000
1100
0000
,
1000
0001
0011
0000
,
0001
1000
1010
0000
,
1000
0001
0101
0000
,
0100
0100
0100
0100
,
0100
0100
0100
0100
,
0010
0010
0010
0010
,
0010
0010
0010
0010
,
1000
1000
0001
0001
,
1000
1000
0001
0001
,
1000
0001
1000
0001
,
1000
0001
1000
0000
,
2002
0000
0000
0000
,
0000
0000
0000
0000
,
0000
0000
0000
0000
,
0000
0000
0000
0000
,
0000
0000
0000
0000
,
0000
0000
0000
0000
,
0000
0000
0000
0000
,
0000
0000
0000
0000
,
0000
0000
0000
0000
,
0000
0000
0000
0000
,
0000
0000
0000
0000
,
0000
0000
0000
0000
,
0000
0000
0000
0000
,
0000
0000
0000
0000
,
3003
0000
0000
0000
,
0000
0000
0000
0000
,
0001
0001
0001
0001
,
1000
1000
1000
1000
,
0010
0010
0010
0010
,
0100
0100
0100
0100
,
0001
0001
0001
0001
,
0001
0001
0001
0001
,
1000
1000
1000
1000
,
1000
1000
1000
1000
,
0001
1000
0001
1000
,
0001
1000
0001
1000
,
0001
1000
0001
1000
,
0001
0000
0000
0000
,
0000
0000
1000
0100
,
0000
0010
0010
0010
,
0000
0000
0001
0100
,
0010
1000
0001
0001
,
0000
0000
1000
0001
,
0010
0100
1000
0100
,
0000
0000
1000
0001
,
0100
0010
1000
0001
,
1000
0000
0000
0000
0001
1000
0100
0000
,
0010
0100
0110
0000
,
0010
0100
1000
1000
,
0010
0100
0001
0001
,
0100
0000
0001
0000
,
0101
0000
0000
0000
,
0100
0010
1000
0001
,
1000
0000
0000
0000
,
0100
0000
0010
0000
,
0011
0000
0000
0000
,
0001
0010
0100
1000
,
0100
0000
0000
0000
,
1000
1000
1000
1000
,
0001
0001
0001
0001
,
0100
0100
0100
0100
,
0010
0010
0010
0010
,
1000
1000
1000
1000
,
0010
0010
0010
0010
,
0100
0100
0100
0100
,
0001
0001
0001
0001
,
2000
0000
0000
0000
,
0000
0000
0000
0000
,
0000
0000
3000
0000
,
0000
0000
0000
0000
,
0002
0000
0000
0000
,
0000
0000
0000
0000
,
0000
0000
0003
0000
,
0000
0000
0000
0000
,
0200
0000
0000
0000
,
0000
0000
0000
0000
,
0000
0000
0300
0000
,
0000
0000
0000
0000
,
0020
0000
0000
0000
,
0000
0000
0000
0000
,
0000
0000
0030
0000
,
0000
0000
0000
0000
,
0010
0000
0000
0000
;

//---------------dance-single - ----------------
#NOTEDATA:;
#CHARTNAME:;
#STEPSTYPE:dance-single;
#DESCRIPTION:;
#CHARTSTYLE:Pad;
#DIFFICULTY:Medium;
#METER:11;
#RADARVALUES:0.431916,0.668089,0.193313,0.077325,0.015465,356.000000,25.000000,10.000000,0.000000,0.000000,0.000000,0.000000,0.000000,0.431916,0.668089,0.193313,0.077325,0.015465,356.000000,25.000000,10.000000,0.000000,0.000000,0.000000,0.000000,0.000000;
#CREDIT:chewi;
#NOTES:
0000
0000
0000
0000
,
0000
0000
0000
0000
,
0000
0000
0000
0000
,
0000
0000
0000
0000
,
1000
0001
1000
0001
,
0100
0010
0100
0010
,
1000
0010
1000
0010
,
0100
0001
0100
0001
,
0100
0001
0100
0001
0100
0001
0100
0001
,
0100
0001
0100
0001
0100
0001
0100
0001
,
0100
0010
0100
0010
0100
0010
0100
0010
,
0100
0010
0100
0010
0100
0010
0100
0010
,
1000
0010
1000
0010
1000
0010
1000
0010
,
1000
0010
1000
0010
1000
0010
1000
0010
,
1000
0001
1000
0001
1000
0001
1000
0000
,
0000
0000
0000
0000
,
0001
0010
0100
1000
,
1001
0110
1001
0110
,
1000
0010
0100
0001
,
0101
0011
0101
0011
,
0001
0010
0100
1000
,
1100
1010
1100
1010
,
1000
0001
0100
0010
,
1000
0001
0010
0100
,
0010
0000
0000
0001
0000
0000
1000
0000
0200
0000
0000
0000
0300
0000
0000
0000
,
1000
0000
0000
0001
0000
0000
0100
0000
0002
0000
0000
0000
0003
0000
0000
0000
,
1000
0000
0000
0100
0000
0000
0010
0000
0002
0000
0000
0000
0003
0000
0000
0000
,
0001
0000
0000
0010
0000
0000
0100
0000
2000
0000
0000
0000
3000
0000
0000
0000
,
0001
0001
0001
0001
,
0001
0010
0100
1000
0001
0010
0100
1000
,
0100
0100
0100
0100
,
0100
1000
0010
1000
0100
1000
0010
1000
,
0010
0010
0010
0010
,
0010
0100
0001
0100
0010
0100
0001
0000
,
0001
1000
0001
1000
0001
1000
0001
1000
,
0001
1000
0001
0000
1000
0000
0000
0000
,
2002
0000
0000
0000
,
0000
0000
0000
0000
,
0000
0000
0000
0000
,
0000
0000
0000
0000
,
0000
0000
0000
0000
,
0000
0000
0000
0000
,
0000
0000
0000
0000
,
0000
0000
0000
0000
,
0000
0000
0000
0000
,
0000
0000
0000
0000
,
0000
0000
0000
0000
,
0000
0000
0000
0000
,
0000
0000
0000
0000
,
0000
0000
0000
0000
,
3003
0000
0000
0000
,
0000
0000
0000
0000
,
0000
1000
0100
0010
0001
1000
0100
1000
,
0000
0001
0010
0100
1000
0001
0010
0001
,
0000
0010
0100
1000
0001
0010
0100
0010
,
0100
0100
0010
0010
0100
0010
0001
1000
,
0001
1000
0001
1000
0001
1000
0001
1000
,
0001
1000
0001
1000
0001
1000
0001
1000
,
0100
1000
0100
1000
0100
1000
0100
1000
,
0100
1000
0100
1000
0100
1000
0100
1000
,
0100
0010
0100
0010
0100
0010
0100
0010
,
0100
0010
0100
0010
0100
0010
0100
0010
,
0001
0010
0001
0010
0001
0010
0001
0000
,
0000
0000
0000
0000
,
0000
0000
0000
0000
0001
1000
0100
0000
,
0000
0010
0100
1000
,
0000
0000
0000
0000
0001
0010
0100
0000
,
1000
0001
1000
0100
,
0000
0000
0000
0000
1000
0001
0100
0000
,
0010
1000
0001
0100
,
0000
0000
0000
0000
0100
0001
0100
0000
,
0000
0001
0010
0100
1000
0100
1000
0000
,
1000
0000
0000
0100
0000
0010
0000
0000
,
0001
0000
0000
0100
0000
0010
0000
0000
,
0001
0000
0000
1000
0000
0010
0000
0000
,
0100
0000
0000
0001
0000
1000
0000
0000
,
0010
0000
0100
0001
0000
0001
0100
0000
,
0010
0000
0000
0000
,
1000
0000
0100
1000
0000
1000
0010
0000
,
1000
0000
0000
0000
,
0001
0000
1000
0100
0000
0100
0010
0000
,
0001
0000
0000
0000
,
0100
0000
1000
0001
0000
0001
1000
0000
,
0001
0010
0100
1000
,
1001
0110
1001
0110
,
1000
0010
0100
0001
,
0101
0011
0101
0011
,
0001
0010
0100
1000
,
1100
1010
1100
1010
,
1000
0001
0100
0010
,
1000
0001
0010
0100
,
1000
1000
1000
1000
,
0002
0000
0000
0000
,
0000
0000
0000
0000
,
0000
0000
0003
0000
,
0000
0000
0000
0000
,
2000
0000
0000
0000
,
0000
0000
0000
0000
,
0000
0000
3000
0000
,
0000
0000
0000
0000
,
0020
0000
0000
0000
,
0000
0000
0000
0000
,
0000
0000
0030
0000
,
0000
0000
0000
0000
,
0200
0000
0000
0000
,
0000
0000
0000
0000
,
0000
0000
0300
0000
,
0000
0000
0000
0000
,
0100
0000
0000
0000
;

//---------------dance-single - ----------------
#NOTEDATA:;
#CHARTNAME:;
#STEPSTYPE:dance-single;
#DESCRIPTION:;
#CHARTSTYLE:Pad;
#DIFFICULTY:Hard;
#METER:12;
#RADARVALUES:0.586567,1.000000,0.409823,0.085058,0.139185,467.000000,53.000000,11.000000,0.000000,0.000000,0.000000,0.000000,0.000000,0.586567,1.000000,0.409823,0.085058,0.139185,467.000000,53.000000,11.000000,0.000000,0.000000,0.000000,0.000000,0.000000;
#CREDIT:chewi;
#NOTES:
// measure 0
0000
0000
0000
0000
,  // measure 1
0000
0000
0000
0000
,  // measure 2
0000
0000
0000
0000
,  // measure 3
0000
0000
0000
0000
,  // measure 4
0000
0000
0000
0000
,  // measure 5
0000
0000
0000
0000
,  // measure 6
0000
0000
0000
0000
,  // measure 7
0000
0000
0000
0000
,  // measure 8
1000
0100
1000
0100
1000
0100
1000
0100
,  // measure 9
1000
0100
1000
0100
1000
0100
1000
0100
,  // measure 10
0010
0001
0010
0001
0010
0001
0010
0001
,  // measure 11
0010
0001
0010
0001
0010
0001
0010
0001
,  // measure 12
1000
0001
1000
0001
1000
0001
1000
0001
,  // measure 13
1000
0001
1000
0001
1000
0001
1000
0001
,  // measure 14
0100
0010
0100
0010
0100
0010
0100
0000
,  // measure 15
0000
0000
0000
0000
,  // measure 16
0010
0000
1000
0100
0000
0100
0010
0000
,  // measure 17
0001
0000
0100
0010
0000
0010
1000
0000
,  // measure 18
0001
0000
0100
0010
0000
0010
0100
0000
,  // measure 19
0001
0000
1000
0100
0000
0100
0010
0000
,  // measure 20
0001
0000
0010
0100
0000
0100
1000
0000
,  // measure 21
0001
0000
1000
0010
0000
0010
0100
0000
,  // measure 22
0001
0000
0100
0010
0000
0010
1000
0000
,  // measure 23
0001
0000
1000
0100
0000
0100
0010
0000
,  // measure 24
0011
0000
0010
0001
0000
0001
0010
0000
1100
0000
1000
0010
0000
0010
1000
0000
,  // measure 25
1001
0000
0100
0010
0000
0010
0100
0000
0101
0000
1000
0010
0000
0010
1000
0000
,  // measure 26
1001
0000
1000
0100
0000
0100
0010
0000
0011
0000
0010
0100
0000
0100
1000
0000
,  // measure 27
1001
0000
0100
0010
0000
0010
0100
0000
0101
0000
0100
0010
0000
0010
1000
0000
,  // measure 28
0001
0000
1000
0100
0010
0000
0001
0000
,  // measure 29
0010
0000
0100
1000
0001
0000
0010
0000
,  // measure 30
0100
0000
1000
0001
0010
0000
0011
0000
,  // measure 31
1010
0011
1010
0100
,  // measure 32
0001
1000
0010
0000
1000
0000
0001
0000
,  // measure 33
0010
0001
0010
0000
0100
0000
1000
0000
,  // measure 34
1000
0001
1000
0001
1000
0001
1000
0001
,  // measure 35
1000
0001
1000
0000
0100
0000
0000
0000
,  // measure 36
0220
0000
0000
0000
,  // measure 37
0000
0000
0000
0000
,  // measure 38
0000
0000
0000
0000
,  // measure 39
0000
0000
0000
0000
,  // measure 40
0000
0000
0000
0000
,  // measure 41
0000
0000
0000
0000
,  // measure 42
0000
0000
0000
0000
,  // measure 43
0000
0000
0000
0000
,  // measure 44
0000
0000
0000
0000
,  // measure 45
0000
0000
0000
0000
,  // measure 46
0000
0000
0000
0000
,  // measure 47
0000
0000
0000
0000
,  // measure 48
0000
0000
0000
0000
,  // measure 49
0000
0000
0000
0000
,  // measure 50
0330
0000
0000
0000
,  // measure 51
0000
0000
0000
0000
,  // measure 52
0000
0000
0100
0010
0001
0010
0100
0000
0100
0010
0001
0010
0100
1000
0100
0000
,  // measure 53
0000
0000
0100
1000
0010
1000
0100
0000
0100
1000
0010
0100
0001
0010
0001
0000
,  // measure 54
0000
0000
0001
1000
0100
1000
0001
0000
0001
1000
0100
1000
0010
0100
0001
0000
,  // measure 55
0100
0001
0100
0010
0100
0000
0001
0000
0001
1000
0100
0010
0001
1000
0010
0000
,  // measure 56
1000
0010
1000
0010
1000
0010
1000
0010
,  // measure 57
0001
0010
0001
0010
0001
0010
0001
0010
,  // measure 58
1000
0010
1000
0010
1000
0010
1000
0010
,  // measure 59
1000
0100
1000
0100
1000
0100
1000
0100
,  // measure 60
0001
0100
0001
0100
0001
0100
0001
0100
,  // measure 61
1000
0100
1000
0100
1000
0100
1000
0100
,  // measure 62
1000
0001
0100
0010
1000
0001
0010
0100
,  // measure 63
1000
0000
0000
0000
,  // measure 64
1100
1100
1010
1010
,  // measure 65
0101
0101
0011
0011
,  // measure 66
1001
1001
0110
0110
,  // measure 67
1010
1010
0101
0101
,  // measure 68
1100
1100
0011
0011
,  // measure 69
1100
1100
0011
0011
,  // measure 70
0001
0010
0100
1000
0001
0010
0100
1000
,  // measure 71
0001
0000
0000
0000
,  // measure 72
1010
0000
0000
0101
0000
0101
0000
0000
,  // measure 73
0011
0000
0000
1100
0000
1100
0000
0000
,  // measure 74
1001
0000
0000
1010
0000
0101
0000
0000
,  // measure 75
1001
0000
0000
0011
0000
1100
0000
0000
,  // measure 76
0010
0000
0100
0001
0000
0001
0100
0000
,  // measure 77
0220
0000
0000
0330
,  // measure 78
1000
0000
0100
1000
0000
1000
0010
0000
,  // measure 79
2002
0000
0000
3003
,  // measure 80
0001
0000
1000
0100
0000
0100
0010
0000
,  // measure 81
0022
0000
0000
0033
,  // measure 82
0100
0000
1000
0001
0000
0001
1000
0000
,  // measure 83
2002
0000
0000
3003
,  // measure 84
0001
0010
0001
0010
0001
0010
0001
0010
,  // measure 85
0001
0010
0001
0010
0001
0010
0001
0010
,  // measure 86
0100
1000
0100
1000
0100
1000
0100
1000
,  // measure 87
0100
1000
0100
1000
0100
1000
0100
1000
,  // measure 88
0001
1000
0001
1000
0001
1000
0001
1000
,  // measure 89
0001
1000
0001
1000
0001
1000
0001
1000
,  // measure 90
0010
0100
0010
0100
0010
0100
0010
0100
,  // measure 91
0010
0100
0010
0100
0010
0100
0010
0100
,  // measure 92
0001
0100
1000
0100
,  // measure 93
0001
0100
1000
0100
,  // measure 94
0001
0100
1000
0000
,  // measure 95
0000
0100
0001
0000
,  // measure 96
0100
0010
0001
0010
,  // measure 97
0100
0010
0001
0010
,  // measure 98
0100
0010
0001
0000
,  // measure 99
0000
1000
0100
0000
,  // measure 100
0100
0010
0100
1000
,  // measure 101
0100
0010
0100
1000
,  // measure 102
0100
0010
0001
0000
,  // measure 103
0000
1000
0001
0000
,  // measure 104
0001
0100
0010
1000
,  // measure 105
0001
1000
0100
0010
,  // measure 106
0001
1000
0001
0000
,  // measure 107
0000
0000
0000
0000
,  // measure 108
0200
0300
0000
0000
;
