#TITLE:ストロボナイツ;
#SUBTITLE:;
#ARTIST:kz feat. 初音ミク;
#TITLETRANSLIT:Strobe nights;
#SUBTITLETRANSLIT:;
#ARTISTTRANSLIT:;
#CREDIT:Chewi☆;
#BANNER:Strobe nights.png;
#BACKGROUND:Strobe nights-bg.png;
#LYRICSPATH:;
#CDTITLE:;
#MUSIC:Strobe nights.mp3;
#OFFSET:-0.525;
#SAMPLESTART:46.137;
#SAMPLELENGTH:15.000;
#SELECTABLE:YES;
#DISPLAYBPM:125.000;
#BPMS:0.000=125.000;
#STOPS:;
#BGCHANGES:;

//---------------dance-single - Chewi----------------
#NOTES:
     dance-single:
     Chewi:
     Hard:
     10:
     0.391,0.466,0.173,0.078,0.069:
0000
0000
0000
0000
,
0000
0000
0000
0000
,
0000
0000
0000
0000
,
0000
0000
0000
0000
,
1000
0000
0000
1000
0000
0000
1000
0000
0000
0000
0000
0000
0000
0000
0000
0000
,
0001
0000
0000
0001
0000
0000
0001
0000
0000
0000
0000
0000
0000
0000
0000
0000
,
0100
0000
0000
0100
0000
0000
0100
0000
0000
0000
0000
0000
0000
0000
0000
0000
,
0010
0010
0100
0110
,
0010
1000
0010
0000
1000
0100
1000
0000
,
0100
0001
0100
0000
0001
0010
0001
0000
,
0010
0100
0010
0000
0001
1000
0001
0000
,
0100
0010
0100
0000
0001
1000
0001
0000
,
1000
0100
0010
0000
0001
0001
0001
0000
,
0001
0100
0010
0000
1000
1000
1000
0000
,
0010
0100
0001
0000
0001
0010
0100
0000
,
0100
1000
0010
0000
1000
0010
0100
0000
,
2010
0001
0100
3001
,
0001
1000
0001
1000
0010
0100
0010
0100
,
0102
0010
0100
1003
,
1000
0100
1000
0100
0010
0100
0010
0100
,
0120
0001
0100
0031
,
0001
0010
0001
0010
0001
0100
0001
0100
,
0010
1000
0100
0001
,
0010
1000
0010
0000
0010
0001
0010
0000
,
2010
0100
0100
3100
,
0001
1000
0001
0000
1000
0001
1000
0000
,
0102
0010
0010
0013
,
0010
0100
0010
0000
0100
0010
0100
0000
,
0010
0000
0001
0000
0100
1000
0010
0000
,
0001
0100
1000
0010
,
0001
0000
0010
0000
1000
0100
0001
0000
,
0010
1000
0100
0001
,
0010
0100
0010
0100
0001
0100
0001
0000
,
0100
0100
0010
0010
,
1000
0010
1000
0010
1000
0100
1000
0100
,
1000
1000
0100
0100
,
0010
0001
0010
0000
0001
0100
0001
0000
,
0100
0010
0100
0000
0010
1000
0010
0000
,
1000
0100
0010
0000
0001
0010
0100
1000
,
2002
0000
0000
3003
,
1000
0000
0000
1000
0000
0000
1000
0000
0000
0000
0001
0000
0100
0000
0000
0000
,
0010
0000
0000
0010
0000
0000
0010
0000
0000
0000
0100
0000
0010
0000
1000
0000
,
0001
0000
0000
0001
0000
0000
0001
0000
0000
0000
0001
0000
0010
0000
0000
0000
,
0100
0000
0000
0100
0000
0000
0100
0000
1000
0000
0010
0000
0100
0000
0001
0000
,
0100
0000
0000
0100
0000
0000
0100
0000
0000
0000
0010
0000
0100
0000
0000
0000
,
0001
0000
0000
0001
0000
0000
0001
0000
0001
0000
0010
0000
0100
0000
1000
0000
,
0010
0000
0000
0010
0000
0000
0010
0000
0000
0000
1000
0000
0100
0000
0000
0000
,
0010
0000
0000
0010
0000
0000
0010
0000
0100
0000
1000
0000
0010
0000
0100
0000
,
0001
0100
0010
0000
1000
0100
1100
0000
,
1000
0100
0010
0000
0001
0010
0011
0000
,
0001
0100
0010
0000
1000
0100
1100
0000
,
1000
0100
0010
0000
0001
0010
0011
0000
,
1001
0000
0000
0100
0000
0000
1001
0000
0000
0000
1000
0000
0010
0000
0100
0000
,
0101
0000
0000
0010
0000
0000
0101
0000
0000
0000
0001
0000
0010
0000
0100
0000
,
1000
0000
0000
1100
0000
0000
0101
0000
0000
0000
0100
0000
0010
0000
0100
0000
,
0001
0000
0000
1001
0000
0000
1100
0000
1000
0000
0100
0000
0010
0000
0001
0000
,
0022
0000
0000
0000
0000
0000
0000
0000
0033
0000
0001
1000
0001
0000
0000
0000
;

//---------------dance-single - Chewi----------------
#NOTES:
     dance-single:
     Chewi:
     Medium:
     7:
     0.272,0.294,0.069,0.086,0.000:
0000
0000
0000
0000
,
0000
0000
0000
0000
,
0000
0000
0000
0000
,
0000
0000
0000
0000
,
1000
0000
0000
1000
0000
0000
0000
0000
,
0001
0000
0000
0001
0000
0000
0000
0000
,
0100
0000
0000
0100
0000
0000
0000
0000
,
0010
0110
0100
0000
,
1000
0010
0001
0010
,
1000
0100
0001
0100
,
1000
0100
0010
0001
,
1000
0100
0010
0001
,
0001
0100
1000
0100
,
0001
0010
1000
0010
,
1000
0010
0100
0001
,
1000
0010
0100
0001
,
0001
0000
0000
0001
0100
0000
0000
0000
,
1000
0000
0000
1000
0100
0000
0000
0000
,
0010
0000
0000
0100
0010
0000
0000
0000
,
0010
0000
0000
0010
0100
0000
0000
0000
,
0010
0001
0100
1000
,
0010
1000
0100
0001
,
0010
0100
1000
0000
,
0010
0100
0001
0000
,
2010
0100
0001
3100
,
0001
0100
0010
1000
,
1020
0100
1000
0130
,
1000
0100
0010
0001
,
0021
0001
0100
0031
,
0001
0100
0010
1000
,
1200
0001
1000
0301
,
1000
0010
0100
0001
,
0100
0100
0100
0000
0010
0010
0010
0000
,
1000
0001
0010
0100
,
0010
0010
0010
0000
0100
0100
0100
0000
,
0100
0010
0001
1000
,
0001
0100
0010
0001
,
0100
1000
0010
0100
,
1000
0100
0001
0100
,
0010
0100
0010
0100
,
2000
0010
0100
3010
,
0100
0010
0001
0100
,
0002
0100
0010
0103
,
0010
0100
0001
1000
,
0200
0001
1000
0301
,
0001
0010
1000
0100
,
0020
0001
0100
1030
,
1000
0100
0001
0010
,
0110
0010
0100
0010
,
1000
0100
1000
0100
,
0101
0100
0001
0100
,
0001
0010
0100
1000
,
0001
0000
1000
0000
0001
1000
0001
0000
,
1000
0010
0001
0010
,
0100
0000
0010
0000
0100
0010
0100
0000
,
0010
0100
0001
1000
,
2002
0000
0000
3003
;

//---------------dance-single - Chewi----------------
#NOTES:
     dance-single:
     Chewi:
     Easy:
     4:
     0.173,0.196,0.043,0.121,0.000: // measure 1
0000
0000
0000
0000
,  // measure 2
0000
0000
0000
0000
,  // measure 3
0000
0000
0000
0000
,  // measure 4
0000
0000
0000
0000
,  // measure 5
1000
1000
0000
0000
,  // measure 6
0001
0001
0000
0000
,  // measure 7
0100
0100
0000
0000
,  // measure 8
0010
0010
0000
0000
,  // measure 9
2000
0000
0000
3000
,  // measure 10
1000
1000
1000
0000
,  // measure 11
0002
0000
0000
0003
,  // measure 12
0001
0001
0001
0000
,  // measure 13
0200
0000
0000
0300
,  // measure 14
0100
0100
0100
0000
,  // measure 15
0020
0000
0000
0030
,  // measure 16
0010
0010
0010
0000
,  // measure 17
0001
0000
0100
0000
,  // measure 18
0010
0000
0001
0000
,  // measure 19
1000
0000
0001
0000
,  // measure 20
1000
0000
1001
0000
,  // measure 21
1000
0000
0100
0000
,  // measure 22
0010
0000
1000
0000
,  // measure 23
0001
0000
1000
0000
,  // measure 24
0001
0000
1001
0000
,  // measure 25
0020
0000
0000
0030
,  // measure 26
0100
0010
0100
0000
,  // measure 27
0200
0000
0000
0300
,  // measure 28
0010
0100
0001
0000
,  // measure 29
0002
0000
0000
0003
,  // measure 30
0001
1000
0001
0000
,  // measure 31
2000
0000
0000
3000
,  // measure 32
0001
1000
0001
0000
,  // measure 33
1000
0100
0001
0010
,  // measure 34
0000
0000
0000
0000
,  // measure 35
0001
0100
1000
0010
,  // measure 36
0000
0000
0000
0000
,  // measure 37
0100
0100
0100
0000
,  // measure 38
0010
0100
0010
0000
,  // measure 39
0010
0010
0010
0000
,  // measure 40
0100
0010
0100
0000
,  // measure 41
2002
0000
0000
3003
,  // measure 42
1000
1000
1000
0000
,  // measure 43
0001
1000
0001
0000
,  // measure 44
1000
0001
1000
0000
,  // measure 45
2002
0000
0000
3003
,  // measure 46
0001
0001
0001
0000
,  // measure 47
1000
0001
1000
0000
,  // measure 48
0001
1000
0001
0000
,  // measure 49
0010
0001
0100
0000
,  // measure 50
0100
0100
0100
0000
,  // measure 51
0100
1000
0010
0000
,  // measure 52
0010
0010
0010
0000
,  // measure 53
0010
0100
0001
0000
,  // measure 54
0001
0001
0001
0000
,  // measure 55
1000
0100
0010
0000
,  // measure 56
0100
0100
0100
0000
,  // measure 57
0220
0000
0000
0330
;

//---------------dance-single - Chewi----------------
#NOTES:
     dance-single:
     Chewi:
     Beginner:
     2:
     0.089,0.147,0.035,0.060,0.000:
0000
0000
0000
0000
,
0000
0000
0000
0000
,
0000
0000
0000
0000
,
0000
0000
0000
0000
,
2000
0000
0000
3000
,
1000
0000
0000
0000
,
0002
0000
0000
0003
,
0001
0000
0000
0000
,
1000
0000
0000
0000
,
0001
0000
0000
0000
,
0010
0000
0000
0000
,
0010
0000
0000
0000
,
0001
0000
0000
0000
,
1000
0000
0000
0000
,
0010
0000
0000
0000
,
0010
0000
0000
0000
,
1000
0000
0000
0000
,
0010
0000
0000
0000
,
0001
0000
0000
0000
,
0010
0000
0000
0000
,
1000
0000
0000
0000
,
0100
0000
0000
0000
,
0001
0000
0000
0000
,
0100
0000
0000
0000
,
2000
0000
0000
3000
,
1000
0000
0000
0000
,
0002
0000
0000
0003
,
0001
0000
0000
0000
,
0200
0000
0000
0300
,
0100
0000
0000
0000
,
0020
0000
0000
0030
,
0010
0000
0000
0000
,
0010
0000
0000
0000
,
1000
0000
0000
0000
,
0100
0000
0000
0000
,
0001
0000
0000
0000
,
0010
0000
0000
0000
,
0001
0000
0000
0000
,
0100
0000
0000
0000
,
1000
0000
0000
0000
,
1001
0000
0000
0000
,
1000
0000
0000
0000
,
0001
0000
0000
0000
,
1000
0000
0000
0000
,
0110
0000
0000
0000
,
0100
0000
0000
0000
,
0010
0000
0000
0000
,
0100
0000
0000
0000
,
1001
0000
0000
0000
,
1000
1000
1000
0000
,
0001
0000
0000
0000
,
0001
0001
0001
0000
,
0110
0000
0000
0000
,
0100
0100
0100
0000
,
0010
0000
0000
0000
,
0010
0010
0010
0000
,
2000
0000
0000
3000
;
