#TITLE:Strawberry Kisses;
#SUBTITLE:;
#ARTIST:Nikki Webster;
#TITLETRANSLIT:;
#SUBTITLETRANSLIT:;
#ARTISTTRANSLIT:;
#GENRE:;
#CREDIT:;
#BANNER:Strawberry Kisses.png;
#BACKGROUND:Strawberry Kisses-bg.png;
#LYRICSPATH:;
#CDTITLE:;
#MUSIC:Strawberry Kisses.ogg;
#OFFSET:-0.882000;
#SAMPLESTART:56.608002;
#SAMPLELENGTH:12.000000;
#SELECTABLE:YES;
#BPMS:0.000000=111.975998
;
#STOPS:
;
#BGCHANGES:-1.764=Strawberry Kisses.avi=1.000=1=0=1===CrossFade==,
99999=-nosongbg-=1.000=0=0=0 // don't automatically add -songbackground-
;
#KEYSOUNDS:;
#ATTACKS:;

//---------------dance-single - ----------------
#NOTES:
     dance-single:
     :
     Hard:
     9:
     0.354005,0.399299,0.238064,0.000000,0.000000,229.000000,207.000000,22.000000,0.000000,0.000000,0.000000,0.354005,0.399299,0.238064,0.000000,0.000000,229.000000,207.000000,22.000000,0.000000,0.000000,0.000000:
// measure 0
0000
0000
0000
0000
,  // measure 1
0000
0000
0000
0000
,  // measure 2
0000
0000
0000
0000
,  // measure 3
0000
0000
0000
0000
0000
0000
0010
0100
,  // measure 4
0001
0001
0010
0010
0100
0100
1000
0100
,  // measure 5
0000
0000
1000
0010
0100
0001
0100
0010
,  // measure 6
1000
1000
0100
0100
0310
0010
0001
0010
,  // measure 7
0100
1000
0100
1000
0010
1000
0010
1000
,  // measure 8
1010
0000
0000
0010
0000
0000
0100
0000
,  // measure 9
0001
0000
0000
0010
0000
0000
0100
0000
,  // measure 10
1000
0000
0000
0001
0000
0000
0100
0000
,  // measure 11
0001
0000
0010
0000
0100
0010
0001
0100
,  // measure 12
0010
1000
0010
0000
0100
0001
0100
0000
,  // measure 13
0001
0000
1000
0000
0100
0100
0100
0000
,  // measure 14
1000
0100
1000
0000
0001
0010
0001
0000
,  // measure 15
0010
0100
0010
0100
1000
0001
1000
0001
,  // measure 16
0100
0001
0100
0000
0010
1000
0010
0000
,  // measure 17
1000
0000
0001
0000
0010
0010
0010
0000
,  // measure 18
0001
0010
0001
0000
1000
0100
1000
0000
,  // measure 19
0100
0010
0100
0010
0001
1000
0001
1000
,  // measure 20
0001
0010
0001
0000
1000
0100
1000
0000
,  // measure 21
0100
0000
0010
0000
0001
1000
0001
1000
,  // measure 22
0001
0000
0000
0000
0000
0010
0000
0100
,  // measure 23
0000
0000
0010
0100
0010
0100
1000
0001
,  // measure 24
1000
0000
0000
0000
0000
0001
0000
0100
,  // measure 25
0100
0000
0000
0000
,  // measure 26
0110
0000
1000
0000
0001
0010
0100
1000
,  // measure 27
0000
0000
0001
0100
1000
0100
0001
1000
,  // measure 28
0100
0110
0001
1001
,  // measure 29
0101
1100
0101
1001
,  // measure 30
1010
0000
0001
0000
1000
0100
0001
0010
,  // measure 31
0100
0000
1000
0000
0001
0010
0100
1000
,  // measure 32
0001
1000
0001
1000
0010
0100
0010
0100
,  // measure 33
0110
1001
0110
0001
,  // measure 34
1000
0100
0010
0001
0000
0000
1000
0010
,  // measure 35
0001
0010
1000
0001
0010
0000
0110
0000
,  // measure 36
1000
1001
1010
0011
,  // measure 37
1010
1001
0101
1000
,  // measure 38
0001
0010
1000
0100
0010
0000
0001
0000
,  // measure 39
1000
0100
0010
0001
1000
0001
1000
0001
,  // measure 40
0100
0010
0100
0010
0110
0000
1001
0000
,  // measure 41
0110
0000
0000
0000
;

//---------------dance-single - ----------------
#NOTES:
     dance-single:
     :
     Medium:
     6:
     0.210239,0.266199,0.054106,0.000000,0.000000,136.000000,131.000000,5.000000,0.000000,0.000000,0.000000,0.210239,0.266199,0.054106,0.000000,0.000000,136.000000,131.000000,5.000000,0.000000,0.000000,0.000000:
// measure 0
0000
0000
0000
0000
,  // measure 1
0000
0000
0000
0000
,  // measure 2
0000
0000
0000
0000
,  // measure 3
0000
0000
0000
0000
,  // measure 4
1000
0100
0001
0100
,  // measure 5
1000
0100
0001
0100
,  // measure 6
1000
0010
0001
0010
,  // measure 7
1000
0000
0000
3000
,  // measure 8
0001
0000
0000
0001
0000
0000
0001
0000
,  // measure 9
0100
0000
0000
0100
0000
0000
0100
0000
,  // measure 10
0010
0000
0000
0010
0000
0000
0010
0000
,  // measure 11
1000
0000
0000
1000
0000
0000
1000
0000
,  // measure 12
1000
0001
1000
1000
,  // measure 13
0001
1000
0001
0001
,  // measure 14
0100
0000
0100
0000
,  // measure 15
0010
0000
0010
0000
,  // measure 16
0010
1000
0100
1000
,  // measure 17
0010
1000
0100
0010
,  // measure 18
0001
0100
0010
0001
,  // measure 19
0010
0100
0001
0010
,  // measure 20
0100
1000
0010
0100
,  // measure 21
0001
0010
0100
1000
,  // measure 22
0001
0001
1000
1000
,  // measure 23
1001
0000
0100
0000
,  // measure 24
0100
0100
0010
0010
,  // measure 25
0110
0000
0000
0000
,  // measure 26
0010
0000
1000
0000
0010
0010
0000
0000
,  // measure 27
1000
0000
0100
0000
0010
0010
0000
0000
,  // measure 28
0001
0001
1000
1000
,  // measure 29
0001
0100
1000
0100
,  // measure 30
0001
0000
0010
0000
0100
0100
0000
0000
,  // measure 31
1000
0000
0010
0000
0100
0100
0000
0000
,  // measure 32
0001
1000
0100
0010
,  // measure 33
0110
0110
1001
0001
,  // measure 34
0100
0100
0000
0000
0001
0000
0010
0000
,  // measure 35
0100
0100
0000
0000
1000
0000
1000
0000
,  // measure 36
0001
0001
1000
0010
,  // measure 37
0001
0000
0010
0000
1000
0000
0000
1000
,  // measure 38
1000
0000
0000
0000
0001
0000
0000
0001
,  // measure 39
0001
0000
1000
0001
,  // measure 40
0010
1000
0100
0001
,  // measure 41
0010
0000
0000
0000
;

//---------------dance-single - ----------------
#NOTES:
     dance-single:
     :
     Easy:
     4:
     0.151495,0.221833,0.086569,0.000000,0.000000,98.000000,90.000000,8.000000,0.000000,0.000000,0.000000,0.151495,0.221833,0.086569,0.000000,0.000000,98.000000,90.000000,8.000000,0.000000,0.000000,0.000000:
// measure 0
0000
0000
0000
0000
,  // measure 1
0000
0000
0000
0000
,  // measure 2
0000
0000
0000
0000
,  // measure 3
0000
0000
0000
0000
,  // measure 4
1000
0001
1000
0000
,  // measure 5
1000
0000
1001
0000
,  // measure 6
0001
1000
0001
0000
,  // measure 7
1001
0000
0000
0000
,  // measure 8
0100
0000
0000
0000
,  // measure 9
0100
0000
0000
0000
,  // measure 10
0010
0000
0000
0000
,  // measure 11
0010
0000
0000
0000
,  // measure 12
1000
0001
0000
0001
,  // measure 13
1000
0100
0000
0100
,  // measure 14
0010
0001
0000
0001
,  // measure 15
0001
0000
0000
0000
,  // measure 16
1000
0001
0000
0001
,  // measure 17
0010
0100
0000
0100
,  // measure 18
1000
0100
0000
0100
,  // measure 19
1000
0010
0000
0010
,  // measure 20
0100
0001
0000
0001
,  // measure 21
0100
0010
0000
0010
,  // measure 22
1000
0000
0000
0001
,  // measure 23
1000
0000
0000
0000
,  // measure 24
0001
0000
0000
1000
,  // measure 25
0001
0000
0000
0000
,  // measure 26
1001
0000
1000
0000
,  // measure 27
1001
0000
0001
0000
,  // measure 28
0010
0010
0100
0100
,  // measure 29
0010
0100
0010
0100
,  // measure 30
0110
0000
0100
0000
,  // measure 31
0110
0000
0010
0000
,  // measure 32
0001
0100
0010
1000
,  // measure 33
0001
0100
1001
0000
,  // measure 34
0001
0000
1001
0000
,  // measure 35
1000
0000
0100
0100
,  // measure 36
0010
0010
0100
0010
,  // measure 37
0100
0010
0001
0000
,  // measure 38
0010
0000
0100
0000
,  // measure 39
1000
0000
1000
0000
,  // measure 40
0010
0000
0100
0001
,  // measure 41
1000
0000
0000
0000
;

//---------------dance-single - ----------------
#NOTES:
     dance-single:
     :
     Beginner:
     2:
     0.064927,0.110916,0.043284,0.000000,0.000000,42.000000,38.000000,4.000000,0.000000,0.000000,0.000000,0.064927,0.110916,0.043284,0.000000,0.000000,42.000000,38.000000,4.000000,0.000000,0.000000,0.000000:
// measure 0
0000
0000
0000
0000
,  // measure 1
0000
0000
0000
0000
,  // measure 2
0000
0000
0000
0000
,  // measure 3
0000
0000
0000
0000
,  // measure 4
1000
0000
0000
0000
,  // measure 5
0001
0000
0000
0000
,  // measure 6
0100
0000
0000
0000
,  // measure 7
0010
0000
0000
0000
,  // measure 8
0100
0000
0000
0000
,  // measure 9
0100
0000
0000
0000
,  // measure 10
0010
0000
0000
0000
,  // measure 11
0010
0000
0000
0000
,  // measure 12
1000
0000
0000
0000
,  // measure 13
1000
0000
0000
0000
,  // measure 14
0010
0000
0000
0000
,  // measure 15
0001
0000
0000
0000
,  // measure 16
1000
0000
0000
0000
,  // measure 17
0010
0000
0000
0000
,  // measure 18
1000
0000
0000
0000
,  // measure 19
1000
0000
0000
0000
,  // measure 20
0100
0000
0000
0000
,  // measure 21
0100
0000
0000
0000
,  // measure 22
1000
0000
0000
0000
,  // measure 23
1000
0000
0000
0000
,  // measure 24
0001
0000
0000
0000
,  // measure 25
0001
0000
0000
0000
,  // measure 26
1001
0000
0000
0000
,  // measure 27
1001
0000
0000
0000
,  // measure 28
0010
0000
0000
0000
,  // measure 29
0010
0000
0000
0000
,  // measure 30
0110
0000
0000
0000
,  // measure 31
0110
0000
0000
0000
,  // measure 32
0001
0000
0000
0000
,  // measure 33
0001
0000
0000
0000
,  // measure 34
0001
0000
0000
0000
,  // measure 35
1000
0000
0000
0000
,  // measure 36
0010
0000
0000
0000
,  // measure 37
0100
0000
0000
0000
,  // measure 38
0010
0000
0000
0000
,  // measure 39
1000
0000
0000
0000
,  // measure 40
0010
0000
0000
0000
,  // measure 41
1000
0000
0000
0000
;
