#TITLE:Stop Violence!;
#SUBTITLE:;
#ARTIST:Herbie Hammock & His Band;
#TITLETRANSLIT:;
#SUBTITLETRANSLIT:;
#ARTISTTRANSLIT:;
#GENRE:;
#CREDIT:Chewphoria~;
#MENUCOLOR:;
#METERTYPE:DDR;
#BANNER:Stop Violence!.png;
#BACKGROUND:Stop Violence!-bg.png;
#LYRICSPATH:;
#CDTITLE:;
#MUSIC:Stop Violence!.mp3;
#OFFSET:-2.727;
#SAMPLESTART:9.088;
#SAMPLELENGTH:12.000;
#SELECTABLE:YES;
#LISTSORT:;
#BPMS:0.000=113.010;
#STOPS:;
#BGCHANGES:;
#ATTACKS:;

//---------------dance-single - Chewphoria~----------------
#NOTES:
     dance-single:
     Chewphoria~:
     Hard:
     9:
     0.263,0.288,0.193,0.045,0.074: // measure 1
0000
0000
0000
0000
,  // measure 2
1000
0000
0000
1000
0000
0000
0000
0000
,  // measure 3
0000
0110
0000
0000
,  // measure 4
0001
0000
0000
0010
0000
0000
0000
0000
,  // measure 5
0100
0000
0000
1000
0000
0000
0000
0000
,  // measure 6
1000
0000
0000
1001
0000
0000
0000
0000
,  // measure 7
0001
0000
0000
1001
0000
0000
0000
0000
,  // measure 8
1000
0010
1000
0000
0000
0000
0000
0000
,  // measure 9
0001
0010
0001
0000
0000
0000
0000
0000
,  // measure 10
0010
0100
1000
0001
0200
0000
0300
0000
,  // measure 11
0010
0010
0010
0000
0020
0000
0030
0000
,  // measure 12
0000
0000
0000
0010
0000
0010
0000
0000
0100
0000
0100
0000
,  // measure 13
0000
0000
0000
0000
,  // measure 14
0000
0011
1100
0101
,  // measure 15
1010
0000
0000
0000
,  // measure 16
0000
0000
0000
0010
0000
0100
0000
0000
0001
0000
0001
0000
,  // measure 17
0000
0000
0000
0000
,  // measure 18
0000
0101
1100
0110
,  // measure 19
2002
0000
0000
3003
,  // measure 20
1000
0000
0010
0100
0010
0000
0100
0000
,  // measure 21
0001
0000
0010
0001
0010
0000
0100
0000
,  // measure 22
1100
0001
0010
0001
,  // measure 23
0011
0100
1000
0100
,  // measure 24
1000
0100
0010
0000
0010
0010
0010
0000
,  // measure 25
0100
0000
0000
0000
0001
0100
0000
0000
1000
0100
0000
0000
0000
0000
0000
0000
,  // measure 26
1000
0100
0010
0001
,  // measure 27
1000
0010
0001
0100
,  // measure 28
1000
0000
0000
0000
0100
0000
0000
0000
0000
0000
0010
0100
0010
0000
0000
0000
,  // measure 29
0000
0000
0000
0000
0011
0000
0000
0000
0001
0100
0001
0100
0001
0000
0000
0000
,  // measure 30
0000
0000
0000
0000
0110
0000
0000
0000
0000
0000
1000
0010
1000
0010
0000
0000
,  // measure 31
0000
1000
0001
0000
1000
0100
1000
0000
,  // measure 32
0001
0010
0100
1000
,  // measure 33
0001
0010
0100
1000
,  // measure 34
0001
1000
0001
0000
1000
0001
1000
0000
,  // measure 35
0010
0110
0100
0110
,  // measure 36
1000
0000
0001
0000
1000
0001
1000
0000
,  // measure 37
0001
0000
0010
0001
0010
0000
0100
0000
,  // measure 38
1000
0010
0100
0001
,  // measure 39
0010
0100
0010
0100
0010
0100
0010
0100
,  // measure 40
0010
0000
0000
0000
;

//---------------dance-single - Chewphoria~----------------
#NOTES:
     dance-single:
     Chewphoria~:
     Medium:
     6:
     0.223,0.288,0.091,0.045,0.006: // measure 1
0000
0000
0000
0000
,  // measure 2
0010
0000
0000
0010
0000
0000
0000
0000
,  // measure 3
0000
0110
0000
0000
,  // measure 4
0100
0000
0001
0000
,  // measure 5
0100
0000
0001
0000
,  // measure 6
0010
0000
1000
0000
,  // measure 7
0010
0000
0110
0000
,  // measure 8
1000
1000
1000
0000
0000
0000
0000
0000
,  // measure 9
0001
0001
0001
0000
0000
0000
0000
0000
,  // measure 10
0010
0100
0010
0000
0020
0000
0030
0000
,  // measure 11
0001
1000
0001
0000
2000
0000
3000
0000
,  // measure 12
0000
0001
0100
0010
,  // measure 13
0000
0000
0000
0000
,  // measure 14
0000
0010
1000
0100
,  // measure 15
0001
0000
0000
0000
,  // measure 16
0000
0010
1000
0100
,  // measure 17
0000
0000
0000
0000
,  // measure 18
1000
0100
0010
0001
,  // measure 19
0010
0000
0000
0010
0000
0000
0010
0000
,  // measure 20
0010
0100
0010
0000
0100
0000
0000
0000
,  // measure 21
1000
0000
1100
0000
0000
0101
0000
0000
,  // measure 22
0000
0001
0100
1000
,  // measure 23
0010
0001
0010
1000
,  // measure 24
0100
0010
0001
0100
,  // measure 25
0010
1010
0101
0000
,  // measure 26
0100
0000
0010
0000
1000
0000
0001
0010
,  // measure 27
0200
0000
0000
0000
,  // measure 28
0310
0000
0001
0000
1000
0001
1000
0000
,  // measure 29
0010
0000
0100
0000
0001
0100
0001
0100
,  // measure 30
0010
0000
1000
0000
0001
0001
1000
0001
,  // measure 31
1000
0100
0010
0011
,  // measure 32
0001
1000
0100
0001
,  // measure 33
1000
0001
0100
0010
,  // measure 34
0100
0010
0100
0000
0010
0100
0010
0000
,  // measure 35
1010
0100
0100
0100
,  // measure 36
0100
0001
0100
0000
0001
0000
1000
0000
,  // measure 37
0001
1000
0001
0000
1000
0000
0001
0000
,  // measure 38
0010
0100
0100
0010
,  // measure 39
0002
0000
0000
0000
0000
0000
0000
0000
0000
0000
0000
0000
1000
0000
0000
1000
,  // measure 40
0003
0000
0000
0000
;

//---------------dance-single - Chewphoria~----------------
#NOTES:
     dance-single:
     Chewphoria~:
     Easy:
     3:
     0.174,0.220,0.102,0.091,0.000: // measure 1
0000
0000
0000
0000
,  // measure 2
1000
0000
0000
0000
,  // measure 3
1001
0000
0000
0000
,  // measure 4
0001
0000
0010
0000
,  // measure 5
0100
0000
0010
0000
,  // measure 6
1000
0000
0100
0000
,  // measure 7
0001
0000
1000
0000
,  // measure 8
2002
0000
3003
0000
,  // measure 9
0100
0200
0000
0300
,  // measure 10
0010
1000
2020
3030
,  // measure 11
0001
0001
0002
0003
,  // measure 12
0000
0001
0010
1000
,  // measure 13
0000
0000
0000
0000
,  // measure 14
1000
0100
0001
0010
,  // measure 15
0110
0000
0000
0000
,  // measure 16
0000
0001
0100
1000
,  // measure 17
0000
0000
0000
0000
,  // measure 18
1000
0010
0001
0100
,  // measure 19
0020
0000
0000
0030
,  // measure 20
0001
0001
0100
0100
,  // measure 21
0010
0100
0000
0100
,  // measure 22
0000
0010
0100
0010
,  // measure 23
0000
1000
0000
0001
,  // measure 24
0000
1000
0100
0010
,  // measure 25
0001
1001
1001
0000
,  // measure 26
0000
0100
1000
0010
,  // measure 27
0001
0010
1000
0100
,  // measure 28
0010
0000
0000
0011
,  // measure 29
0010
0000
1100
0000
,  // measure 30
0100
0000
0000
1001
,  // measure 31
0000
1000
0000
0010
,  // measure 32
0100
0000
0001
0000
,  // measure 33
0100
0000
1000
0000
,  // measure 34
0010
0000
0001
0000
,  // measure 35
0010
0000
1000
0000
,  // measure 36
0100
0100
0100
0100
,  // measure 37
0010
0010
0010
0010
,  // measure 38
0001
1000
0001
1000
,  // measure 39
0020
0000
0000
0130
;

//---------------dance-single - Chewphoria~----------------
#NOTES:
     dance-single:
     Chewphoria~:
     Beginner:
     1:
     0.089,0.110,0.068,0.000,0.000:
0000
0000
0000
0000
,
1000
0000
0000
0000
,
1001
0000
0000
0000
,
0001
0000
0000
0000
,
0100
0000
0000
0000
,
1000
0000
0000
0000
,
0001
0000
0000
0000
,
1001
0000
0000
0000
,
0100
0100
0000
0000
,
0010
0010
0000
0000
,
0001
0001
0000
0000
,
0000
0001
0000
0000
,
0000
0000
0000
0000
,
1000
0000
0000
0000
,
0110
0000
0000
0000
,
0000
0001
0000
0000
,
0000
0000
0000
0000
,
1000
0000
0000
0000
,
0110
0000
0000
0000
,
0001
0000
0000
0000
,
0010
0000
0000
0000
,
0000
0010
0000
0010
,
0000
1000
0000
0000
,
0000
1000
0000
0010
,
0000
0000
1001
0000
,
0000
0100
0000
0010
,
0000
0010
0000
0000
,
0010
0000
0000
0001
,
1000
0000
1001
0000
,
0100
0000
0000
0001
,
0000
1000
0000
0000
,
0100
0000
0000
0000
,
0100
0000
0000
0000
,
0010
0000
0000
0000
,
0010
0000
0000
0000
,
0100
0100
0000
0000
,
0010
0010
0000
0000
,
0001
0000
0001
0000
,
0010
0000
0000
0010
;
