#TITLE:Stick Around;
#SUBTITLE:;
#ARTIST:Megu with Scotty D.;
#TITLETRANSLIT:;
#SUBTITLETRANSLIT:;
#ARTISTTRANSLIT:;
#CREDIT:Chewi☆;
#BANNER:Stick Around.png;
#BACKGROUND:Stick Around-bg.png;
#LYRICSPATH:;
#CDTITLE:;
#MUSIC:Stick Around.mp3;
#OFFSET:-0.525;
#SAMPLESTART:54.268;
#SAMPLELENGTH:15.000;
#SELECTABLE:YES;
#DISPLAYBPM:67.000:134.000;
#BPMS:0.000=67.000,60.000=134.000,124.000=67.000;
#STOPS:;
#BGCHANGES:;

//---------------dance-single - Chewi----------------
#NOTES:
     dance-single:
     Chewi:
     Beginner:
     1:
     0.048,0.067,0.000,0.017,0.000: // measure 1
0000
0000
0000
0000
,  // measure 2
0000
0000
0000
0000
,  // measure 3
0020
0000
0000
0030
,  // measure 4
0010
0000
0000
0000
,  // measure 5
0100
0000
0000
0000
,  // measure 6
0010
0000
0000
0000
,  // measure 7
0100
0000
0000
0000
,  // measure 8
0010
0000
0000
0000
,  // measure 9
0001
0000
0000
0000
,  // measure 10
0100
0000
0000
0000
,  // measure 11
0001
0000
0000
0000
,  // measure 12
0001
0000
0000
0000
,  // measure 13
1000
0000
0000
0000
,  // measure 14
0010
0000
0000
0000
,  // measure 15
0100
0000
0000
0000
,  // measure 16
1000
0000
0000
0000
,  // measure 17
0001
0000
0000
0000
,  // measure 18
1000
0000
0000
0000
,  // measure 19
0001
0000
0000
0000
,  // measure 20
0100
0000
0000
0000
,  // measure 21
0010
0000
0000
0000
,  // measure 22
0010
0000
0000
0000
,  // measure 23
0100
0000
0000
0000
,  // measure 24
1000
0000
0000
0000
,  // measure 25
0010
0000
0000
0000
,  // measure 26
0001
0000
0000
0000
,  // measure 27
0010
0000
0000
0000
,  // measure 28
1000
0000
0000
0000
,  // measure 29
0010
0000
0000
0000
,  // measure 30
0001
0000
0000
0000
,  // measure 31
0010
0000
0000
0000
,  // measure 32
1000
0000
0000
0000
,  // measure 33
0100
0000
0000
0000
,  // measure 34
0001
0000
0000
0000
,  // measure 35
0010
0000
0000
0000
,  // measure 36
0010
0000
0000
0000
,  // measure 37
0001
0000
0000
0000
,  // measure 38
0100
0000
2000
0000
,  // measure 39
0000
0000
0000
3000
;

//---------------dance-single - Chewi----------------
#NOTES:
     dance-single:
     Chewi:
     Easy:
     3:
     0.126,0.169,0.043,0.087,0.000: // measure 1
0000
0000
0000
0000
,  // measure 2
0000
0000
0000
0000
,  // measure 3
0220
0000
0000
0330
,  // measure 4
0010
0000
1000
0000
,  // measure 5
0100
0000
0001
0000
,  // measure 6
0010
0000
0001
0000
,  // measure 7
0100
0000
1000
0000
,  // measure 8
0010
0000
0100
0000
,  // measure 9
0001
0000
1000
0000
,  // measure 10
0100
0000
0010
0000
,  // measure 11
0001
0000
0100
0010
,  // measure 12
0001
0001
0001
0000
,  // measure 13
1000
1000
1000
0000
,  // measure 14
0010
0010
0010
0000
,  // measure 15
0100
0100
0100
0000
,  // measure 16
1000
0000
1000
0000
,  // measure 17
0001
0000
0001
0000
,  // measure 18
1000
1000
1000
0000
,  // measure 19
0001
0001
0001
0000
,  // measure 20
0100
0000
0100
0000
,  // measure 21
0010
0000
0010
0000
,  // measure 22
0010
0010
0010
0000
,  // measure 23
0100
0100
0100
0000
,  // measure 24
1000
0000
0100
0000
,  // measure 25
0010
0000
0001
0000
,  // measure 26
0001
0000
0100
0000
,  // measure 27
0010
0000
1000
0000
,  // measure 28
1000
0000
0100
0000
,  // measure 29
0010
0000
1000
0000
,  // measure 30
0001
0000
0100
0000
,  // measure 31
0010
0000
0001
0000
,  // measure 32
2002
0000
0000
3003
,  // measure 33
1000
1000
1000
0000
0000
0000
0000
0000
,  // measure 34
2002
0000
0000
3003
,  // measure 35
0001
0001
0001
0000
0000
0000
0100
0000
,  // measure 36
0220
0000
0000
0000
0330
0000
0000
1000
,  // measure 37
1000
1000
0000
0000
0001
0001
0001
0000
,  // measure 38
0001
1000
0001
0000
2002
0000
0000
0000
,  // measure 39
0000
0000
0000
3003
;

//---------------dance-single - Chewi----------------
#NOTES:
     dance-single:
     Chewi:
     Medium:
     7:
     0.240,0.270,0.148,0.043,0.035: // measure 1
0000
0000
0000
0000
,  // measure 2
0000
0000
0000
0000
,  // measure 3
2002
0000
0000
3003
,  // measure 4
1000
0100
1000
0100
0000
0000
0000
0000
0100
0000
0010
0000
0001
0000
0000
0000
,  // measure 5
0001
0001
0001
0000
1000
1000
1000
0000
,  // measure 6
0001
0100
0001
0100
0000
0000
0000
0000
0100
0000
0010
0000
1000
0000
0000
0000
,  // measure 7
1000
1000
1000
0000
0001
0001
0001
0000
,  // measure 8
1000
0001
1000
0001
0000
0000
0000
0000
0001
0000
1000
0000
0010
0000
0000
0000
,  // measure 9
1000
1000
1000
0000
0100
0100
0100
0000
,  // measure 10
0100
0010
0100
0010
0000
0000
0000
0000
0010
0000
0001
0000
0001
0000
0000
0000
,  // measure 11
0001
1000
0001
0000
1000
0001
1000
0001
,  // measure 12
1001
0000
1001
0000
0110
0000
0100
0010
,  // measure 13
0100
0010
0000
0000
0000
0000
1000
0100
,  // measure 14
0110
0000
0110
0000
1001
0000
0001
0001
,  // measure 15
0001
0000
1000
1000
1000
0000
0001
0000
,  // measure 16
0000
1000
0000
1000
0000
0001
0000
1000
,  // measure 17
0000
0010
0000
0100
0000
0010
0000
0100
,  // measure 18
0000
0001
0000
0100
0000
0001
0000
0100
,  // measure 19
0000
1000
0000
0100
0000
1000
0000
0100
,  // measure 20
0000
1000
0000
0001
0000
0010
0000
0100
,  // measure 21
0000
1000
0000
0001
0000
0100
0000
0010
,  // measure 22
0000
1000
0000
0010
0000
0100
0000
0001
,  // measure 23
0000
1000
0000
0100
0000
0001
0000
0010
,  // measure 24
0000
1000
0000
0100
0000
0010
0000
0100
,  // measure 25
0000
1000
0000
0010
0000
0100
0000
0001
,  // measure 26
0000
0100
0000
0010
0000
1000
0000
0001
,  // measure 27
0000
0010
0000
0100
0000
1000
0000
0010
,  // measure 28
0000
0100
0000
0010
0000
1000
0000
0001
,  // measure 29
0000
0010
0000
0100
0000
0010
0000
0001
,  // measure 30
0000
0100
0000
0010
0000
1000
0000
0001
,  // measure 31
0000
1000
0000
0010
1000
0000
0001
1000
,  // measure 32
0001
0000
1000
0000
0001
0011
1001
0000
,  // measure 33
1000
0000
1010
0000
1000
1010
1001
0000
,  // measure 34
1000
0100
0010
0001
1000
0000
1100
0000
,  // measure 35
0001
0010
0100
1000
0001
0000
0011
0000
,  // measure 36
2002
0000
0000
0000
3003
0000
0000
1000
,  // measure 37
1001
0000
0000
0001
1001
0000
0100
0000
,  // measure 38
1000
0010
0001
0100
2000
0000
0000
0000
,  // measure 39
0000
0000
0000
3000
;

//---------------dance-single - Chewi----------------
#NOTES:
     dance-single:
     Chewi:
     Hard:
     10:
     0.343,0.371,0.122,0.226,0.309: // measure 1
0000
0000
0000
0000
,  // measure 2
0000
0000
0000
0000
,  // measure 3
2002
0000
0000
3003
,  // measure 4
1000
0001
0100
0010
0000
0000
0000
0000
1000
0010
1000
0000
0010
0000
0000
0000
,  // measure 5
0001
0010
0001
0000
0010
0000
0000
0000
0001
1000
0100
0000
1000
0001
0100
0000
,  // measure 6
0100
0010
1000
0001
0000
0000
0000
0000
0001
0010
0001
0000
1000
0000
0000
0000
,  // measure 7
1000
0100
1000
0000
0001
0000
0000
0000
1000
0001
0100
0000
0001
1000
0010
0000
,  // measure 8
1000
0010
0100
0001
0000
0000
0000
0000
0001
1000
0001
0000
0100
0000
0000
0000
,  // measure 9
1000
0001
1000
0000
0010
0000
0000
0000
1000
0010
0100
0000
0001
0010
0100
0000
,  // measure 10
0001
0010
0100
0001
0000
0000
0000
0000
0100
0010
0100
0000
0001
0000
0000
0000
,  // measure 11
1000
0001
0100
0000
1000
0000
0000
0000
1000
0010
0100
0000
0001
0100
0010
1000
,  // measure 12
0001
0000
0000
1000
0001
0000
0000
1000
0001
0000
0000
1000
0100
0010
0001
1000
,  // measure 13
0100
0010
0001
0000
0000
0000
0000
0000
0000
0000
0000
0001
0010
0100
1000
0010
,  // measure 14
1000
0000
0000
0010
1000
0000
0000
0010
1000
0000
0000
0010
1000
0001
0010
0100
,  // measure 15
0000
0000
0000
0001
0010
1000
0100
0001
0000
0010
0000
0000
0000
0100
0010
0001
,  // measure 16
1000
0010
0100
0001
0000
0100
0000
0202
,  // measure 17
0000
0000
0303
0000
0000
0001
1000
0100
,  // measure 18
0010
0000
0000
0100
0100
1000
1000
0010
,  // measure 19
2020
3030
0000
0202
0303
0010
0100
0001
,  // measure 20
1000
0000
0001
0010
0000
0100
0000
1000
,  // measure 21
0100
0001
0010
1000
0000
0000
0010
0100
,  // measure 22
0010
0000
0000
0100
1000
0010
0100
0001
,  // measure 23
0000
0100
0010
0000
0000
1000
0001
0010
,  // measure 24
0100
1000
0001
0100
0000
0101
0000
2020
,  // measure 25
0000
0000
3030
0000
0000
1000
0100
0010
,  // measure 26
0100
0000
0000
1000
0010
0001
0010
1000
,  // measure 27
0000
1001
0000
0101
0000
1000
0100
0010
,  // measure 28
0001
0000
1000
0002
0000
2003
0000
3200
,  // measure 29
0000
0320
0000
0030
0000
1000
0100
0010
,  // measure 30
0001
1000
0000
0000
0000
0001
0100
1000
,  // measure 31
0010
0000
0000
0000
,  // measure 32
1000
0001
0000
0001
1000
0000
0100
0000
0011
1100
0000
0000
0000
1000
0100
2000
,  // measure 33
0000
0000
0000
0000
0000
0000
0000
0000
0000
0000
0000
0000
3000
0000
1000
0001
1000
0000
0010
0000
0100
0000
0001
0000
1000
0000
0010
0000
0100
0000
0001
0000
,  // measure 34
0000
0000
0000
0000
0101
0000
1010
0000
1000
1000
0000
0000
0000
1000
0001
0010
,  // measure 35
0100
2000
0000
0000
0000
0000
3000
1000
0001
1000
0001
0000
2002
0000
0003
0000
,  // measure 36
0020
0000
0000
0000
0000
0000
0000
0000
3030
0000
0000
0000
0000
1000
0010
0100
,  // measure 37
0001
0002
0000
0000
0003
1000
0001
2000
0000
3002
0000
0003
0000
1000
0000
0002
,  // measure 38
0000
2000
0000
0000
0000
0000
3003
0000
0220
0000
0000
0000
0000
0000
0000
0000
,  // measure 39
0000
0000
0000
0330
;
