#TITLE:Starships;
#SUBTITLE:;
#ARTIST:Nicki Minaj;
#TITLETRANSLIT:;
#SUBTITLETRANSLIT:;
#ARTISTTRANSLIT:;
#CREDIT:Chewi☆;
#BANNER:Starships.png;
#BACKGROUND:Starships-bg.png;
#LYRICSPATH:;
#CDTITLE:;
#MUSIC:Starships.mp3;
#OFFSET:-0.205;
#SAMPLESTART:69.358;
#SAMPLELENGTH:15.000;
#SELECTABLE:YES;
#DISPLAYBPM:125.000;
#BPMS:0.000=125.000;
#STOPS:;
#BGCHANGES:;

//---------------dance-single - Chewi----------------
#NOTES:
     dance-single:
     Chewi:
     Easy:
     4:
     0.215,0.226,0.091,0.046,0.000:
0000
0000
0000
0000
,
0000
0000
0000
0000
,
0000
0000
0000
0000
,
0000
0000
0000
0000
,
1000
0100
1000
0000
,
0001
0100
0001
0000
,
1000
0010
1000
0000
,
0001
0010
0001
0000
,
1000
0100
0001
0000
,
1000
0100
0001
0000
,
0001
0100
1000
0000
,
0001
0100
1000
0000
,
1000
0000
1001
0000
,
0001
1000
0001
0000
,
0001
0000
1001
0000
,
1000
0001
1000
0000
,
0010
0000
0110
0000
,
0100
0010
0100
0000
,
0100
0000
0110
0000
,
0010
0100
0010
0000
,
0010
0010
0100
0000
,
0100
0100
0010
0000
,
1000
0001
1000
0000
,
0001
1000
0001
0000
,
1000
1000
0100
0000
,
0001
0001
0100
0000
,
0100
0010
0100
0000
,
0010
0100
0010
0000
,
1000
1000
0001
0000
,
0001
0001
1000
0000
,
1000
1000
0001
0000
,
0001
0001
1000
0000
,
1000
0001
1000
0001
,
0100
0010
0100
0010
,
1000
0001
1000
0001
,
2002
0000
0000
3003
,
1000
1000
0001
0001
,
1000
1000
0001
0001
,
1000
0001
1000
0001
,
1001
0000
1001
0000
,
0100
0100
0010
0010
,
0100
0100
0010
0010
,
0100
0010
0100
0010
,
0220
0000
0000
0000
,
0330
0000
0000
0000
;

//---------------dance-single - Chewi----------------
#NOTES:
     dance-single:
     Chewi:
     Medium:
     6:
     0.300,0.327,0.160,0.091,0.000: // measure 1
0000
0000
0000
0000
,  // measure 2
0000
0000
0000
0000
,  // measure 3
0000
0000
0000
0000
,  // measure 4
0000
0000
0000
0000
,  // measure 5
1000
0010
1001
0000
,  // measure 6
0001
0010
1001
0000
,  // measure 7
1000
0100
1001
0000
,  // measure 8
0001
0100
1001
0000
,  // measure 9
1000
1000
1000
1000
,  // measure 10
0001
0001
0001
0001
,  // measure 11
1000
1000
1000
0000
0001
0001
0001
0000
,  // measure 12
2002
0000
0000
3003
,  // measure 13
1000
0000
0100
0000
0010
0001
0100
0000
,  // measure 14
0001
0010
0100
1000
,  // measure 15
0001
0000
0100
0000
0010
1000
0100
0000
,  // measure 16
1000
0010
0100
0001
,  // measure 17
1000
0000
0100
0000
0010
0100
1000
0000
,  // measure 18
0001
0010
0100
1000
,  // measure 19
0001
0000
0100
0000
0010
1000
0001
0000
,  // measure 20
0100
0010
1000
0001
,  // measure 21
0010
0010
0010
0010
,  // measure 22
0010
0100
1000
1100
,  // measure 23
1000
1000
1000
1000
,  // measure 24
0001
1000
0010
1010
,  // measure 25
0010
0010
0010
0010
,  // measure 26
0010
0100
0001
0101
,  // measure 27
0100
0100
0100
0100
,  // measure 28
0010
1000
0001
1001
,  // measure 29
2000
0100
0001
0100
,  // measure 30
0001
0010
0001
0010
,  // measure 31
3002
0010
1000
0010
,  // measure 32
1000
0100
1000
0100
,  // measure 33
2003
0100
0100
0100
,  // measure 34
3002
0100
0100
0100
,  // measure 35
2003
0010
0010
0020
,  // measure 36
0000
0000
0000
3030
,  // measure 37
0010
0000
0100
0000
0010
0100
0001
0000
,  // measure 38
0010
0000
0001
0000
0010
0100
1000
0000
,  // measure 39
0001
0000
1000
0000
0100
0010
0001
0000
,  // measure 40
1000
1100
0001
0101
,  // measure 41
1000
0000
0010
0000
0100
0001
1000
0000
,  // measure 42
0010
0000
0100
0000
0001
1000
0100
0000
,  // measure 43
0010
0000
0001
0000
1000
0100
0010
0000
,  // measure 44
0001
0011
1000
1010
,  // measure 45
1001
0000
0000
0000
;

//---------------dance-single - Chewi----------------
#NOTES:
     dance-single:
     Chewi:
     Hard:
     10:
     0.395,0.427,0.023,0.137,0.183:
0000
0000
0000
0000
,
0000
0000
0000
0000
,
0000
0000
0000
0000
,
0000
0000
0000
0000
,
1000
0000
0000
1000
0000
0000
1000
0000
0000
0000
1000
0000
0000
0001
0000
0000
,
0100
0000
0000
0100
0000
0000
0100
0000
0000
0000
0100
0000
0000
0010
0000
0000
,
1000
0000
0000
1000
0000
0000
1000
0000
0000
0000
1000
0000
0000
0100
0000
0000
,
0010
0000
0000
0010
0000
0000
0010
0000
0000
0000
0010
0000
0000
0001
0000
0000
,
1000
0000
0100
0000
1000
0001
0010
0000
,
0001
0000
0100
0000
0010
1000
1001
0000
,
0001
0000
0010
0000
0100
1000
0010
0000
,
2002
0000
0000
3003
,
1000
0001
0000
0001
1000
0000
0000
0001
,
0010
0000
0000
0010
0000
0000
0010
0000
0000
0000
0010
0000
0100
0000
1000
0000
,
0010
1000
0000
0100
1000
0000
0000
0010
,
0100
0000
0000
0100
0000
0000
0100
0000
0000
0000
0100
0000
0001
0000
1000
0000
,
0001
1000
0000
1000
0100
0000
0010
0001
,
0010
0000
0000
0100
0000
0000
1000
0000
0000
0000
1000
0000
0100
0000
0010
0000
,
0100
1000
0000
0001
0100
0000
0000
0010
,
0100
0000
0000
0001
0000
0000
1000
0000
0000
0000
0000
0000
0000
0000
0000
0000
,
0010
0010
0010
0010
,
1000
0000
0000
0001
0000
0000
1000
0000
0000
0000
0001
0000
0010
0000
0100
0000
,
1000
1000
1000
1000
,
0100
0000
0000
0010
0000
0000
0100
0000
0000
0000
1000
0000
0001
0000
0100
0000
,
0010
0010
0010
0010
,
0100
0000
0000
0010
0000
0000
1000
0000
0000
0000
0001
0000
1000
0000
0100
0000
,
0010
0010
0010
0010
,
0001
0000
0000
0100
0000
0000
0001
0000
0000
0000
0001
0000
0010
0000
0100
0000
,
2000
3002
0023
0230
,
1300
0000
0000
1000
0000
0000
1000
0000
0000
0000
0001
0000
0010
0000
0100
0000
,
2000
3002
0203
0320
,
0130
0000
0000
0100
0000
0000
0100
0000
0000
0000
0100
0000
0010
0000
1000
0000
,
0001
1000
0001
1000
0001
1000
0001
1000
,
0100
0010
0100
0010
0100
0010
0100
0010
,
0001
0010
0100
1000
0001
0010
0100
2000
,
0002
0000
0000
3003
,
0001
0000
0000
0001
0010
0000
0100
0000
1000
0000
0010
0000
1000
0000
0100
0000
,
1000
0000
0000
1000
0010
0000
0100
0000
0001
0000
1000
0000
0010
0000
0100
0000
,
0001
0000
0000
0001
1000
0000
0100
0000
0010
0000
0001
0000
1000
0000
0100
0000
,
0010
0000
0000
0010
0001
0000
0000
0001
1000
0000
0000
1000
0100
0000
0000
0100
,
1000
0000
0000
1000
0001
0000
0100
0000
0010
0000
1000
0000
0001
0000
0100
0000
,
0010
0000
0000
0010
0100
0000
0001
0000
1000
0000
0010
0000
0100
0000
0001
0000
,
1000
0000
0000
1000
0001
0000
0010
0000
0100
0000
1000
0000
0010
0000
1000
0000
,
0001
0000
0000
0001
1000
0000
0000
1000
0100
0000
0000
0100
0010
0000
0000
0010
,
0001
0000
0000
0000
;

//---------------dance-single - Chewi----------------
#NOTES:
     dance-single:
     Chewi:
     Beginner:
     1:
     0.083,0.124,0.011,0.000,0.000:
0000
0000
0000
0000
,
0000
0000
0000
0000
,
0000
0000
0000
0000
,
0000
0000
0000
0000
,
1000
0000
0000
0000
,
0001
0000
0000
0000
,
1000
0000
0000
0000
,
0001
0000
0000
0000
,
1000
0000
0000
0000
,
1000
0000
0000
0000
,
0001
0000
0000
0000
,
0001
0000
0000
0000
,
1000
0000
0000
0000
,
0001
0000
0000
0000
,
0001
0000
0000
0000
,
1000
0000
0000
0000
,
0010
0000
0000
0000
,
0100
0000
0000
0000
,
0100
0000
0000
0000
,
0010
0000
0000
0000
,
0010
0000
0000
0000
,
0100
0000
0000
0000
,
1000
0000
0000
0000
,
0001
0000
0000
0000
,
1000
0000
0000
0000
,
0001
0000
0000
0000
,
0100
0000
0000
0000
,
0010
0000
0000
0000
,
1000
0000
0000
0000
,
0001
0000
0000
0000
,
1000
0000
0000
0000
,
0001
0000
0000
0000
,
1000
0000
1000
0000
,
0001
0000
0001
0000
,
1000
0000
0001
0000
,
1001
0000
0000
0000
,
1000
0000
0010
0000
,
0001
0000
0010
0000
,
1000
0000
0010
0000
,
0001
0000
0000
0000
,
0100
0000
0010
0000
,
1000
0000
0001
0000
,
1000
0000
0100
0000
,
0010
0000
0010
0000
;
