#VERSION:0.83;
#TITLE:Stamp Your Feet;
#SUBTITLE:;
#ARTIST:Donna Summer;
#TITLETRANSLIT:;
#SUBTITLETRANSLIT:;
#ARTISTTRANSLIT:;
#GENRE:Pop;
#ORIGIN:;
#CREDIT:chewi;
#BANNER:;
#BACKGROUND:;
#PREVIEWVID:;
#JACKET:Stamp Your Feet-jacket.png;
#CDIMAGE:;
#DISCIMAGE:;
#LYRICSPATH:;
#CDTITLE:cdtitle.png;
#MUSIC:Stamp Your Feet.ogg;
#OFFSET:-1.883000;
#SAMPLESTART:49.882999;
#SAMPLELENGTH:15.000000;
#SELECTABLE:YES;
#BPMS:0.000=120.000;
#STOPS:;
#DELAYS:;
#WARPS:;
#TIMESIGNATURES:0.000=4=4;
#TICKCOUNTS:0.000=4;
#COMBOS:0.000=1;
#SPEEDS:0.000=1.000=0.000=0;
#SCROLLS:0.000=1.000;
#FAKES:;
#LABELS:0.000=Song Start;
#BGCHANGES:;
#KEYSOUNDS:;
#ATTACKS:
;

//---------------dance-single - ----------------
#NOTEDATA:;
#CHARTNAME:;
#STEPSTYPE:dance-single;
#DESCRIPTION:;
#CHARTSTYLE:;
#DIFFICULTY:Hard;
#METER:8;
#RADARVALUES:0.277518,0.388525,0.135532,0.090355,0.016941,172.000000,160.000000,12.000000,8.000000,0.000000,0.000000,0.000000,0.000000,0.000000,0.277518,0.388525,0.135532,0.090355,0.016941,172.000000,160.000000,12.000000,8.000000,0.000000,0.000000,0.000000,0.000000,0.000000;
#CREDIT:;
#NOTES:
// measure 0
0000
0000
0000
0000
,  // measure 1
0000
0000
0000
0000
,  // measure 2
0000
0000
0000
0000
,  // measure 3
0000
0000
0000
0000
,  // measure 4
0001
0000
0000
0010
0000
0100
1100
0000
,  // measure 5
1000
0000
0000
0010
0000
0100
0101
0000
,  // measure 6
0001
0000
0000
1000
0000
0001
1001
0000
,  // measure 7
0000
0000
0000
0000
,  // measure 8
2000
0000
3100
0000
0010
0010
0100
0000
,  // measure 9
2000
0000
3010
0000
0100
0100
0001
0000
,  // measure 10
0002
0000
0013
0000
0100
0100
0010
0000
,  // measure 11
0001
0010
0100
0000
0010
0100
1000
0000
,  // measure 12
0002
0000
0013
0000
0100
0100
0010
0000
,  // measure 13
0002
0000
0103
0000
0010
0010
1000
0000
,  // measure 14
2000
0000
3100
0000
0010
0010
0100
0000
,  // measure 15
1000
0100
0010
0000
0100
0010
0001
0000
,  // measure 16
1000
0000
0000
1000
0000
0000
1000
0000
,  // measure 17
0010
0000
0100
0000
0010
0100
0001
0000
,  // measure 18
0001
0000
0000
0001
0000
0000
0001
0000
,  // measure 19
0010
0000
0100
0000
0010
0100
1000
0000
,  // measure 20
0010
0000
0000
0010
0000
0000
0010
0000
,  // measure 21
0010
0100
0001
0000
0001
0100
0010
0000
,  // measure 22
0100
0000
0000
0100
0000
0000
0100
0000
,  // measure 23
0000
0000
0000
0000
,  // measure 24
1000
0000
0100
0000
0010
0100
1000
0100
,  // measure 25
0000
0000
1000
0001
0100
0010
0000
0100
,  // measure 26
0000
0000
0010
0100
0001
0100
0000
0001
,  // measure 27
0000
0000
1000
0010
0000
1000
1000
0000
,  // measure 28
0010
0000
0100
0000
0010
0100
0001
1000
,  // measure 29
0000
0000
0001
0010
0100
0010
0000
0001
,  // measure 30
0000
0000
1000
0100
0010
0100
1000
0000
,  // measure 31
0001
0101
1000
1100
,  // measure 32
1000
0000
0000
0000
0000
0000
0001
0000
1000
0000
0000
1001
0000
0000
0000
0000
,  // measure 33
0000
0000
0000
1000
0010
0100
0001
0000
,  // measure 34
0100
0000
0000
0000
0000
0000
0100
0000
0010
0000
0000
0110
0000
0000
0000
0000
,  // measure 35
0000
1000
0001
0000
1000
0100
1100
0000
,  // measure 36
0001
0000
0000
0000
0000
0000
1000
0000
0001
0000
0000
1001
0000
0000
0000
0000
,  // measure 37
0000
0000
0000
0001
0100
0010
1000
0000
,  // measure 38
0010
0000
1000
1100
0000
0001
0101
0000
,  // measure 39
1000
0001
0010
0000
0001
1000
0100
0100
,  // measure 40
0220
0000
0000
0000
,  // measure 41
0000
0000
0000
0000
,  // measure 42
0000
0000
0000
0000
,  // measure 43
0330
0000
0000
0000
;

//---------------dance-single - ----------------
#NOTEDATA:;
#CHARTNAME:;
#STEPSTYPE:dance-single;
#DESCRIPTION:;
#CHARTSTYLE:;
#DIFFICULTY:Beginner;
#METER:1;
#RADARVALUES:0.058085,0.072848,0.000000,0.056472,0.000000,36.000000,36.000000,0.000000,5.000000,0.000000,0.000000,0.000000,0.000000,0.000000,0.058085,0.072848,0.000000,0.056472,0.000000,36.000000,36.000000,0.000000,5.000000,0.000000,0.000000,0.000000,0.000000,0.000000;
#CREDIT:;
#NOTES:
// measure 0
0000
0000
0000
0000
,  // measure 1
0000
0000
0000
0000
,  // measure 2
0000
0000
0000
0000
,  // measure 3
0000
0000
0000
0000
,  // measure 4
1000
0000
0000
0000
,  // measure 5
0100
0000
0000
0000
,  // measure 6
0001
0000
0000
0000
,  // measure 7
0000
0000
0000
0000
,  // measure 8
0100
0000
0000
0000
,  // measure 9
1000
0000
0000
0000
,  // measure 10
1000
0000
0000
0000
,  // measure 11
0001
0000
0000
0000
,  // measure 12
0001
0000
0000
0000
,  // measure 13
0010
0000
0000
0000
,  // measure 14
0100
0000
0000
0000
,  // measure 15
0100
0000
0000
0000
,  // measure 16
1000
0000
0000
0000
,  // measure 17
0001
0000
0000
0000
,  // measure 18
0100
0000
0000
0000
,  // measure 19
0010
0000
0000
0000
,  // measure 20
0100
0000
0000
0000
,  // measure 21
0001
0000
0000
0000
,  // measure 22
1000
0000
0000
0000
,  // measure 23
0010
0000
0000
0000
,  // measure 24
2000
0000
0000
3000
,  // measure 25
1000
0000
0000
0000
,  // measure 26
0002
0000
0000
0003
,  // measure 27
0001
0000
0000
0000
,  // measure 28
0020
0000
0000
0030
,  // measure 29
0010
0000
0000
0000
,  // measure 30
0200
0000
0000
0300
,  // measure 31
0100
0000
0000
0000
,  // measure 32
1000
0000
0000
0000
,  // measure 33
0001
0000
0000
0000
,  // measure 34
0100
0000
0000
0000
,  // measure 35
0010
0000
0000
0000
,  // measure 36
0010
0000
0000
0000
,  // measure 37
0100
0000
0000
0000
,  // measure 38
0001
0000
0000
0000
,  // measure 39
1000
0000
0000
0000
,  // measure 40
0002
0000
0000
0000
,  // measure 41
0000
0000
0000
0000
,  // measure 42
0000
0000
0000
0000
,  // measure 43
0003
0000
0000
0000
;

//---------------dance-single - ----------------
#NOTEDATA:;
#CHARTNAME:;
#STEPSTYPE:dance-single;
#DESCRIPTION:;
#CHARTSTYLE:;
#DIFFICULTY:Easy;
#METER:3;
#RADARVALUES:0.129078,0.169980,0.011294,0.090355,0.000000,80.000000,79.000000,1.000000,8.000000,0.000000,0.000000,0.000000,0.000000,0.000000,0.129078,0.169980,0.011294,0.090355,0.000000,80.000000,79.000000,1.000000,8.000000,0.000000,0.000000,0.000000,0.000000,0.000000;
#CREDIT:;
#NOTES:
// measure 0
0000
0000
0000
0000
,  // measure 1
0000
0000
0000
0000
,  // measure 2
0000
0000
0000
0000
,  // measure 3
0000
0000
0000
0000
,  // measure 4
0010
0000
1000
0000
,  // measure 5
0010
1000
0010
0000
,  // measure 6
0010
0000
0100
0000
,  // measure 7
0100
0000
0000
0000
,  // measure 8
2000
0000
0000
3000
,  // measure 9
0002
0000
0000
0003
,  // measure 10
0020
0000
0000
0030
,  // measure 11
0100
0100
0100
0000
,  // measure 12
0200
0000
0000
0300
,  // measure 13
0020
0000
0000
0030
,  // measure 14
0002
0000
0000
0003
,  // measure 15
1000
1000
1000
0000
,  // measure 16
0001
0000
0100
0000
,  // measure 17
0001
0100
0001
0000
,  // measure 18
1000
0000
0100
0000
,  // measure 19
1000
0100
1000
0000
,  // measure 20
0001
0000
1000
0000
,  // measure 21
0001
1000
0001
0000
,  // measure 22
0010
0000
0100
0000
,  // measure 23
0010
0100
0010
0000
,  // measure 24
1000
0000
0100
0000
,  // measure 25
0001
0000
0010
0000
,  // measure 26
1000
0000
0100
0000
,  // measure 27
0001
0010
1000
0000
,  // measure 28
0010
0000
0001
0000
,  // measure 29
0100
0000
1000
0000
,  // measure 30
0010
0000
0001
0000
,  // measure 31
0100
1000
0010
0000
,  // measure 32
1000
0000
0100
0000
,  // measure 33
1000
0100
1000
0000
,  // measure 34
0001
0000
0100
0000
,  // measure 35
0001
0100
0001
0000
,  // measure 36
0100
0000
0010
0000
,  // measure 37
0100
0010
0100
0000
,  // measure 38
0010
0000
0100
0000
,  // measure 39
0010
0100
0010
0000
,  // measure 40
2002
0000
0000
0000
,  // measure 41
0000
0000
0000
0000
,  // measure 42
0000
0000
0000
0000
,  // measure 43
3003
0000
0000
0000
;

//---------------dance-single - ----------------
#NOTEDATA:;
#CHARTNAME:;
#STEPSTYPE:dance-single;
#DESCRIPTION:;
#CHARTSTYLE:;
#DIFFICULTY:Medium;
#METER:6;
#RADARVALUES:0.204911,0.267111,0.011294,0.022589,0.000000,127.000000,126.000000,1.000000,2.000000,0.000000,0.000000,0.000000,0.000000,0.000000,0.204911,0.267111,0.011294,0.022589,0.000000,127.000000,126.000000,1.000000,2.000000,0.000000,0.000000,0.000000,0.000000,0.000000;
#CREDIT:;
#NOTES:
// measure 0
0000
0000
0000
0000
,  // measure 1
0000
0000
0000
0000
,  // measure 2
0000
0000
0000
0000
,  // measure 3
0000
0000
0000
0000
,  // measure 4
1000
0000
0000
1000
0000
0000
1000
0000
,  // measure 5
0001
0000
0000
0001
0000
0000
0001
0000
,  // measure 6
0100
0000
0000
0100
0000
0000
0100
0000
,  // measure 7
0000
0000
0000
0000
,  // measure 8
0010
1000
0010
0000
,  // measure 9
1000
0100
1000
0000
,  // measure 10
0100
0001
0100
0000
,  // measure 11
0001
0010
0001
0000
,  // measure 12
0010
0100
0001
0000
,  // measure 13
0010
0100
1000
0000
,  // measure 14
0001
1000
0100
0000
,  // measure 15
1000
0001
0100
0000
,  // measure 16
0100
0000
0000
0100
0000
0000
0100
0000
,  // measure 17
0010
0000
0000
0010
0000
0000
0010
0000
,  // measure 18
1000
0000
0000
1000
0000
0000
1000
0000
,  // measure 19
0010
0000
1000
0000
0001
1000
0001
0000
,  // measure 20
1000
0000
0000
1000
0000
0000
1000
0000
,  // measure 21
0001
0000
0000
0001
0000
0000
0001
0000
,  // measure 22
0010
0000
0000
0010
0000
0000
0010
0000
,  // measure 23
0001
0010
0100
1000
,  // measure 24
0001
0000
1000
0000
0001
1000
0100
0000
,  // measure 25
1000
0001
1000
0100
,  // measure 26
1000
0000
0001
0000
1000
0001
0010
0000
,  // measure 27
0001
1000
0001
0010
,  // measure 28
0100
0000
0010
0000
0100
1000
0100
0000
,  // measure 29
1000
0001
0010
0100
,  // measure 30
0100
0000
0010
0000
0001
0100
0010
0000
,  // measure 31
0010
0100
0001
1000
,  // measure 32
1000
0000
0000
0100
0000
0000
1000
0000
,  // measure 33
0001
0000
0000
0100
0000
0000
0001
0000
,  // measure 34
1000
0000
0000
0010
0000
0000
1000
0000
,  // measure 35
0001
0000
0000
0010
0000
0000
0001
0000
,  // measure 36
0010
0100
1000
0100
,  // measure 37
1000
0010
0100
0001
,  // measure 38
0100
0010
1000
0001
,  // measure 39
1000
0000
0001
0000
1000
0001
1000
0000
,  // measure 40
2002
0000
0000
0000
,  // measure 41
0000
0000
0000
0000
,  // measure 42
0000
0000
0000
0000
,  // measure 43
3003
0000
0000
0000
;
