#TITLE:Spending all my time;
#SUBTITLE:;
#ARTIST:Perfume;
#TITLETRANSLIT:;
#SUBTITLETRANSLIT:;
#ARTISTTRANSLIT:;
#GENRE:;
#CREDIT:chewi;
#BANNER:Spending all my time.png;
#BACKGROUND:Spending all my time-bg.png;
#LYRICSPATH:;
#CDTITLE:cdtitle.png;
#MUSIC:Spending all my time.mp3;
#OFFSET:-0.235000;
#SAMPLESTART:37.168999;
#SAMPLELENGTH:15.000000;
#SELECTABLE:YES;
#DISPLAYBPM:130.000000;
#BPMS:0.000000=130.000000
;
#STOPS:
;
#BGCHANGES:-0.470=Spending all my time.avi=1.000=0=0=1=====,
99999=-nosongbg-=1.000=0=0=0 // don't automatically add -songbackground-
;
#KEYSOUNDS:;
#ATTACKS:;

//---------------dance-single - ----------------
#NOTES:
     dance-single:
     :
     Beginner:
     1:
     0.069170,0.052202,0.000000,0.080699,0.000000,40.000000,0.000000,8.000000,0.000000,0.000000,0.000000,0.069170,0.052202,0.000000,0.080699,0.000000,40.000000,0.000000,8.000000,0.000000,0.000000,0.000000:
// measure 0
0000
0000
0000
0000
,  // measure 1
0000
0000
0000
0000
,  // measure 2
0000
0000
0000
0000
,  // measure 3
0000
0000
0000
0000
,  // measure 4
2000
0000
0000
0000
,  // measure 5
0000
0000
0000
3000
,  // measure 6
0002
0000
0000
0000
,  // measure 7
0000
0000
0000
0003
,  // measure 8
0020
0000
0000
0000
,  // measure 9
0000
0000
0000
0030
,  // measure 10
0200
0000
0000
0000
,  // measure 11
0000
0000
0000
0300
,  // measure 12
0100
0000
0000
0000
,  // measure 13
0100
0000
0000
0000
,  // measure 14
0010
0000
0000
0000
,  // measure 15
0010
0000
0000
0000
,  // measure 16
0001
0000
0000
0000
,  // measure 17
0001
0000
0000
0000
,  // measure 18
1000
0000
0000
0000
,  // measure 19
1000
0000
0000
0000
,  // measure 20
0010
0000
0000
0000
,  // measure 21
0010
0000
0000
0000
,  // measure 22
0100
0000
0000
0000
,  // measure 23
0100
0000
0000
0000
,  // measure 24
0001
0000
0000
0000
,  // measure 25
0001
0000
0000
0000
,  // measure 26
1000
0000
0000
0000
,  // measure 27
1000
0000
0000
0000
,  // measure 28
1000
0000
0000
0000
,  // measure 29
0100
0000
0000
0000
,  // measure 30
0001
0000
0000
0000
,  // measure 31
0001
0000
0000
0000
,  // measure 32
1000
0000
0000
0000
,  // measure 33
0010
0000
0000
0000
,  // measure 34
0001
0000
0000
0000
,  // measure 35
0001
0000
0000
0000
,  // measure 36
1000
0000
0000
0000
,  // measure 37
0100
0000
0000
0000
,  // measure 38
0010
0000
0000
0000
,  // measure 39
0001
0000
0000
0000
,  // measure 40
0001
0000
0000
0000
,  // measure 41
0100
0000
0000
0000
,  // measure 42
0010
0000
0000
0000
,  // measure 43
1000
0000
0000
0000
,  // measure 44
0020
0000
0000
0000
,  // measure 45
0000
0000
0000
0030
,  // measure 46
0200
0000
0000
0000
,  // measure 47
0000
0000
0000
0300
,  // measure 48
2000
0000
0000
0000
,  // measure 49
0000
0000
0000
3000
,  // measure 50
0002
0000
0000
0000
,  // measure 51
0000
0000
0000
0003
;

//---------------dance-single - ----------------
#NOTES:
     dance-single:
     :
     Easy:
     4:
     0.206070,0.207800,0.050437,0.000000,0.000000,138.000000,5.000000,0.000000,0.000000,0.000000,0.000000,0.206070,0.207800,0.050437,0.000000,0.000000,138.000000,5.000000,0.000000,0.000000,0.000000,0.000000:
0000
0000
0000
0000
,
0000
0000
0000
0000
,
0000
0000
0000
0000
,
0000
0000
0000
0000
,
1000
0100
1000
0000
,
0100
0000
0010
0000
,
0001
0010
0001
0000
,
0100
0000
0110
0000
,
0010
0100
0001
0000
,
1000
0000
0001
0000
,
1000
0100
0010
0000
,
0100
0000
0110
0000
,
0001
0001
0001
0001
,
1000
1000
1000
1000
,
0010
0010
0010
0010
,
0100
0100
0100
0100
,
1000
1000
1000
1000
,
0100
0100
0100
0100
,
0001
0001
0001
0001
,
1001
0000
0000
0000
,
0010
0001
0100
1000
,
0010
0001
0100
0000
,
1000
0010
0001
0100
,
1000
0010
0001
0000
,
0100
1000
0010
0001
,
0100
1000
0010
0000
,
0001
0100
1000
0010
,
0001
0100
1000
0010
,
0100
0000
0100
0000
,
0010
0010
0010
0000
,
1000
0000
0001
0000
,
1000
0001
0010
0100
,
0010
0000
0010
0000
,
0100
0100
0100
0000
,
1000
0000
0001
0000
,
1000
0001
0100
0000
,
0100
0000
0010
0000
,
0001
0000
0100
0000
,
0010
0000
0001
0000
,
1000
0100
1000
0000
,
1000
0000
0010
0000
,
0100
0000
1000
0000
,
0010
0001
0100
0000
,
0010
1000
0100
0000
,
1000
0100
1000
0000
,
0100
0000
0010
0000
,
0001
0010
0001
0000
,
0100
0000
0110
0000
,
0010
0100
0001
0000
,
1000
0000
0001
0000
,
1000
0100
0010
0000
,
0100
0000
0110
0000
;

//---------------dance-single - ----------------
#NOTES:
     dance-single:
     :
     Medium:
     6:
     0.302621,0.311699,0.221922,0.020175,0.060524,186.000000,22.000000,2.000000,0.000000,0.000000,0.000000,0.302621,0.311699,0.221922,0.020175,0.060524,186.000000,22.000000,2.000000,0.000000,0.000000,0.000000:
0000
0000
0000
0000
,
0000
0000
0000
0000
,
0000
0000
0000
0000
,
0000
0000
0000
0000
,
1000
0100
0010
0000
,
0001
0010
0100
1000
,
0001
0100
0010
0000
,
1000
0010
0100
0001
,
1000
0100
0001
0000
,
0001
1000
0100
0001
,
1000
0010
0001
0000
,
1000
0010
0001
1000
,
0001
0101
1000
0010
,
1000
1100
1000
0001
,
0100
0110
0010
1000
,
0001
0011
0010
0100
,
1000
1100
0001
1000
,
0010
0101
1000
0100
,
0001
1001
1000
0010
,
0220
0000
0000
0330
,
1000
0000
0000
1000
0000
0000
0000
0000
0001
0000
0000
0001
0000
0000
0000
0000
,
1000
0000
0000
1000
0000
0000
0000
0000
1001
0000
0000
0000
0000
0000
0000
0000
,
0001
0000
0000
0001
0000
0000
0000
0000
1000
0000
0000
1000
0000
0000
0000
0000
,
0001
0000
0000
0001
0000
0000
0000
0000
1001
0000
0000
0000
0110
0000
0000
0000
,
0010
0000
0000
0010
0000
0000
0000
0000
0100
0000
0000
0100
0000
0000
0000
0000
,
0010
0000
0000
0010
0000
0000
0000
0000
0110
0000
0000
0000
0000
0000
0000
0000
,
1000
0000
0000
1000
0000
0000
0000
0000
0001
0000
0000
0001
0000
0000
0000
0000
,
1000
0000
0000
1000
0000
0000
0000
0000
1001
0000
0000
0000
0101
0000
0000
0000
,
0100
0010
1000
0001
,
0100
0100
0100
0000
0010
0010
0010
0000
,
1000
0001
0010
0100
,
1000
1000
1000
0000
0001
0001
0001
0000
,
1000
0100
0010
0001
,
1000
1000
1000
0000
0100
0100
0100
0000
,
1000
0001
0100
0010
,
1000
1000
1000
0000
0001
0001
0001
0000
,
1000
0001
0010
0100
,
1000
0001
0100
0010
,
1000
1100
0001
0011
,
1000
1010
0001
0101
,
0100
0010
1000
0001
,
0010
0100
1000
0001
,
1000
1100
0001
0011
,
1000
1010
0001
0101
,
0100
0000
0000
0100
0000
0000
0100
0000
,
0010
0000
0000
0010
0000
0000
0010
0000
,
1000
0000
0000
1000
0000
0000
1000
0000
,
0001
0000
0000
0001
0000
0000
0001
0000
,
1000
0100
0010
0001
,
1000
0100
1000
0100
,
0001
0010
0100
1000
,
0001
0010
0001
0000
;

//---------------dance-single - ----------------
#NOTES:
     dance-single:
     :
     Hard:
     10:
     0.449608,0.576997,0.423669,0.141223,0.221922,256.000000,42.000000,14.000000,0.000000,0.000000,0.000000,0.449608,0.576997,0.423669,0.141223,0.221922,256.000000,42.000000,14.000000,0.000000,0.000000,0.000000:
0000
0000
0000
0000
,
0000
0000
0000
0000
,
0000
0000
0000
0000
,
0000
0000
0000
0000
,
2000
0000
3002
0000
0203
0000
0300
0010
,
1000
0000
0001
0100
0010
1000
0001
0000
,
2000
0000
3200
0000
0320
0000
0030
0001
,
0010
0100
1000
0001
0010
0000
0100
0000
,
2000
0000
3002
0000
2003
0000
3000
0010
,
0100
0000
0001
1000
0010
0100
0001
0000
,
2000
0000
3200
0000
0320
0000
0030
0001
,
0010
0100
1000
0001
1000
0000
0001
0000
,
1000
0000
1100
0000
0001
1000
1100
0000
,
0001
0000
0101
0000
0001
1000
0101
0000
,
1001
0110
1001
0110
,
0010
0100
0001
1000
0100
0100
0100
0000
,
1000
0000
1010
0000
0001
1000
1010
0000
,
0001
0000
0011
0000
0001
1000
0011
0000
,
1001
0110
1001
0110
,
0010
0100
0001
1000
0100
0100
0100
0000
,
0010
0000
0000
0010
0000
0000
0010
0000
0001
0000
0000
0001
0000
0000
0001
0000
,
0010
0000
0000
0010
0000
0000
0010
0000
0001
0000
0000
0000
0000
0000
0000
0000
,
1000
0000
0000
1000
0000
0000
1000
0000
0100
0000
0000
0100
0000
0000
0100
0000
,
1000
0000
0000
1000
0000
0000
1000
0000
0100
0000
0000
0000
1001
0000
0000
0000
,
0100
0000
0000
0100
0000
0000
0100
0000
0010
0000
0000
0010
0000
0000
0010
0000
,
0100
0000
0000
0100
0000
0000
0100
0000
0010
0000
0000
0000
0000
0000
0000
0000
,
0001
0000
0000
0001
0000
0000
0001
0000
0010
0000
0000
0010
0000
0000
0010
0000
,
0001
0000
0000
0001
0000
0000
0001
0000
1000
0000
0000
0000
1001
0000
0000
0000
,
1000
0100
1000
0000
0100
0001
0100
0000
,
0001
0010
0001
0000
0010
1000
0010
0000
,
1000
0100
0010
0001
1000
0100
1000
0000
,
0001
0010
0100
1000
0001
0010
0001
0000
,
0010
0001
0010
0000
0001
0100
0001
0000
,
0100
1000
0100
0000
1000
0010
1000
0000
,
0010
0100
1000
0100
0010
0001
1000
0000
,
0010
0100
0001
0100
0010
1000
0001
0000
,
0000
0000
1000
0000
0000
0010
0000
0000
0100
0000
0000
1000
0000
0000
0100
0000
,
0000
0000
0010
0000
0000
1000
0000
0000
0001
0000
0000
0010
0000
0000
0100
0000
,
0000
0000
1000
0000
0000
0001
0000
0000
1000
0000
0000
0100
0000
0000
1000
0000
,
0000
0000
0001
0000
0000
0010
0000
0000
0100
0000
0000
0010
0000
0000
0001
0000
,
0000
0000
1000
0000
0000
0010
0000
0000
0100
0000
0000
0010
0000
0000
1000
0000
,
0000
0000
0001
0000
0000
0100
0000
0000
0010
0000
0000
0100
0000
0000
0001
0000
,
0000
0000
1000
0000
0000
0100
0000
0000
0010
0000
0000
0001
0000
0000
1000
0000
,
0000
0000
0001
0000
0000
0010
0000
0000
0100
0000
0000
1000
0000
0000
0001
0000
,
1000
0000
0000
1000
0000
0000
0001
0000
0000
0001
0000
0000
1001
0000
0000
0000
,
0100
0000
0000
0100
0000
0000
0010
0000
0000
0010
0000
0000
0110
0000
0000
0000
,
0010
0000
0000
1000
0000
0000
0001
0000
0000
0100
0000
0000
0101
0000
0000
0000
,
0100
0000
0000
0001
0000
0000
1000
0000
0000
0010
0000
0000
1010
0000
0000
0000
,
1001
0000
0000
1001
0000
0000
1001
0000
0000
1001
0000
0000
1001
0000
0000
0000
,
0110
0000
0000
0110
0000
0000
0110
0000
0000
0110
0000
0000
0110
0000
0000
0000
,
0011
0000
0000
0011
0000
0000
0011
0000
0000
0011
0000
0000
0011
0000
0000
0000
,
1100
0000
0000
1100
0000
0000
1100
0000
0000
1100
0000
0000
2200
0000
0000
0000
,
3300
0000
0000
0000
;
