#TITLE:Speed Highway (Classic Remix);
#SUBTITLE:;
#ARTIST:瀬上 純 & 古崎 竜也;
#TITLETRANSLIT:;
#SUBTITLETRANSLIT:;
#ARTISTTRANSLIT:Senoue Jun & T. Kozaki;
#GENRE:;
#CREDIT:Chewi☆;
#MENUCOLOR:;
#METERTYPE:DDR X;
#BANNER:Speed Highway (Classic Remix).png;
#BACKGROUND:Speed Highway (Classic Remix)-bg.png;
#LYRICSPATH:;
#CDTITLE:;
#MUSIC:Speed Highway (Classic Remix).mp3;
#OFFSET:-0.525;
#SAMPLESTART:59.654;
#SAMPLELENGTH:15.000;
#SELECTABLE:YES;
#LISTSORT:;
#BPMS:0.000=138.000;
#STOPS:;
#BGCHANGES:;
#ATTACKS:;

//---------------dance-single - Chewi----------------
#NOTES:
     dance-single:
     Chewi:
     Hard:
     12:
     0.523,0.580,0.384,0.146,0.306:
0000
0000
0000
0000
,
0000
0000
0000
0000
,
0000
0000
0000
0000
,
0000
0000
0000
0000
,
1000
0000
0000
0001
1000
0000
0010
0000
0100
0000
0001
0000
1000
0000
0000
0000
,
0001
0000
1000
0001
1000
0000
0010
0000
0100
0000
0001
0000
0011
0000
0000
0000
,
0001
0000
0000
0010
0001
0000
0010
0000
0100
0000
1000
0000
0010
0000
0000
0000
,
1000
0000
0010
1000
0010
0000
0010
0000
0100
0000
0001
0000
1001
0000
0000
0000
,
1000
0000
0000
0001
1000
0000
0010
0000
0100
0000
0001
0000
0100
0000
0000
0000
,
0010
0000
0100
0001
0100
0000
0001
0000
0010
0000
0100
0000
1100
0000
0000
0000
,
1000
0000
0000
0100
1000
0000
0010
0000
0100
0000
0001
0000
1000
0000
0000
0000
,
0001
0100
0001
0000
1000
0010
1000
0000
0010
0100
0010
0000
0100
0010
0100
0000
,
0020
0000
0000
0030
,
2000
0000
0000
3000
,
0002
0000
0000
0003
,
0020
0000
0000
0030
,
0010
0000
0000
0001
0010
0000
0100
0000
1000
0010
1000
0000
0100
0000
0000
0000
,
1000
0000
0000
0010
1000
0000
0001
0000
0100
0001
0100
0000
1001
0000
0000
0000
,
0010
0000
0000
0010
1000
0000
0001
0000
0010
0100
1000
0000
1000
0000
0010
0000
,
0010
0000
0000
0010
1000
0000
0100
0000
0010
0100
1000
0000
1010
0000
0000
0000
,
0000
0000
0000
0000
1000
0010
0100
0001
0010
0100
1000
0010
1000
0000
1000
0000
,
1010
0000
0000
0101
0000
0000
1001
0000
0001
0000
0010
0000
0001
0000
0000
0000
,
0000
0000
0000
0000
0001
0010
0100
1000
0010
0100
0001
1000
0001
0000
1000
0000
,
0011
0000
0000
1001
0000
0000
1100
0000
1000
0000
0001
0000
0000
1000
0001
0000
,
0000
0000
0000
0000
0100
0010
0100
0010
1000
0010
1000
0100
0010
0000
0001
0000
,
0011
0000
0000
1100
0000
0000
1001
0000
1000
0000
0010
0000
0100
0000
0000
0000
,
0000
0000
0000
0000
0100
0010
1000
0010
0100
0010
1000
0100
0010
0000
0001
0000
,
0011
0000
0000
1100
0000
0000
1001
0000
1001
0000
0000
0000
0000
0000
0000
0000
,
0101
1100
1010
0011
,
0010
0100
1000
0010
0100
0001
0100
0000
,
0101
0011
1010
1100
,
0100
0010
0100
1000
0010
0100
0001
0000
,
0101
1001
1100
1001
,
1000
0100
0010
0001
0010
0001
0011
0000
,
0001
0000
0000
1000
0001
0000
0100
0000
0010
0000
1000
0000
0001
0000
0000
0000
,
1000
0000
0001
1000
0001
0000
0100
0000
0010
0000
1000
0000
1100
0000
0000
0000
,
1000
0000
0000
0100
1000
0000
0100
0000
0010
0000
0001
0000
0100
0000
0000
0000
,
0010
0000
0100
0001
0100
0000
0100
0000
0010
0000
1000
0000
1001
0000
0000
0000
,
0001
0000
0000
1000
0001
0000
0100
0000
0010
0000
1000
0000
0010
0000
0000
0000
,
0100
0000
0010
1000
0010
0000
1000
0000
0100
0000
0010
0000
0011
0000
0000
0000
,
0001
0000
0000
0010
0001
0000
0100
0000
0010
0000
1000
0000
0001
0000
0000
0000
,
1000
0010
1000
0000
0001
0100
0001
0000
0100
0010
0100
0000
0010
0100
0010
0000
,
0200
0000
0000
0300
,
0002
0000
0000
0003
,
2000
0000
0000
3000
,
0200
0000
0000
0300
,
0011
0000
0000
0010
0001
0000
0010
0000
0100
1000
0010
0000
1000
0000
0000
0000
,
0100
0000
0100
0000
0010
0000
0010
0000
0001
1000
0001
0000
1000
0001
1000
0000
,
1010
0000
0000
1000
0010
0000
0100
0000
0001
0100
0001
0000
0010
0000
0001
0000
,
0010
0000
0100
0000
1000
0000
0100
0000
0010
0001
0010
0000
0001
0100
0001
0000
,
0101
0000
0000
0100
0001
0000
0010
0000
0100
1000
0100
0000
1000
0000
0000
0000
,
1000
0000
0100
0000
0010
0000
0001
0000
1000
0100
1000
0000
0001
0100
0001
0000
,
1001
0000
0000
1000
0001
0000
0100
0000
0010
0100
0010
0000
0100
0000
0001
0000
,
0010
0000
0100
0000
1000
0000
0100
0000
0010
0001
0010
0000
1000
0100
1000
0000
,
2002
0000
0000
3003
,
0220
0000
0000
0330
,
2002
0000
0000
3003
,
0220
0000
0000
0330
;

//---------------dance-single - Chewi----------------
#NOTES:
     dance-single:
     Chewi:
     Medium:
     8:
     0.326,0.369,0.429,0.082,0.069: // measure 1
0000
0000
0000
0000
,  // measure 2
0000
0000
0000
0000
,  // measure 3
0000
0000
0000
0000
,  // measure 4
0000
0000
0000
0000
,  // measure 5
0010
0000
0000
0010
0000
0000
0010
0000
0100
0000
0000
0000
0110
0000
0000
0000
,  // measure 6
1000
1100
0001
0101
,  // measure 7
1000
0000
0000
1000
0000
0000
1000
0000
0001
0000
0000
0000
1001
0000
0000
0000
,  // measure 8
0010
0110
0100
0110
,  // measure 9
0010
0000
0000
0010
0000
0000
0010
0000
0001
0000
0000
0000
0011
0000
0000
0000
,  // measure 10
1000
1100
0001
0101
,  // measure 11
0100
0000
0000
0100
0000
0000
0100
0000
0010
0000
0000
0000
0110
0000
0000
0000
,  // measure 12
0010
1010
1000
1001
,  // measure 13
0022
0000
0000
0000
,  // measure 14
0000
0000
0000
0000
0000
0000
0000
0000
0000
0000
0000
0000
0030
0000
0000
2000
,  // measure 15
0000
0000
0000
0000
,  // measure 16
0000
0000
0000
3003
,  // measure 17
1000
0000
0001
0000
1000
0100
1000
0000
,  // measure 18
0001
1000
0100
1001
,  // measure 19
1000
0000
0001
0000
0100
0001
0100
0000
,  // measure 20
0001
0100
1000
1001
,  // measure 21
1000
0100
0010
1000
,  // measure 22
0100
0000
0010
0000
0001
0100
0001
0000
,  // measure 23
0001
0100
0010
0001
,  // measure 24
0100
0000
0010
0000
0001
0010
0001
0000
,  // measure 25
0010
0100
1000
0010
,  // measure 26
0100
0000
0010
0000
0100
0010
0100
0000
,  // measure 27
0010
1000
0001
0010
,  // measure 28
0100
0000
0010
0000
0001
0010
0100
0000
,  // measure 29
1001
1001
1000
0001
,  // measure 30
1000
0100
0010
0001
,  // measure 31
0011
0011
0010
0001
,  // measure 32
0010
0100
1000
0010
,  // measure 33
1010
0010
0101
0100
,  // measure 34
0001
1000
0001
0000
1000
0001
1000
0000
,  // measure 35
0100
0000
0000
0100
0000
0000
0100
0000
0010
0000
0000
0000
0110
0000
0000
0000
,  // measure 36
0001
0011
1000
1010
,  // measure 37
0001
0000
0000
0001
0000
0000
0001
0000
1000
0000
0000
0000
1001
0000
0000
0000
,  // measure 38
0100
0110
0010
0110
,  // measure 39
0100
0000
0000
0100
0000
0000
0100
0000
1000
0000
0000
0000
1100
0000
0000
0000
,  // measure 40
0001
0011
1000
1010
,  // measure 41
0010
0000
0000
0010
0000
0000
0010
0000
0100
0000
0000
0000
0110
0000
0000
0000
,  // measure 42
0100
0101
0001
1001
,  // measure 43
2200
0000
0000
0000
,  // measure 44
0000
0000
0000
0000
0000
0000
0000
0000
0000
0000
0000
0000
0300
0000
0000
0002
,  // measure 45
0000
0000
0000
0000
,  // measure 46
0000
0000
0000
3003
,  // measure 47
0010
0000
0000
0010
0000
0000
0010
0000
0100
0000
0000
0000
0110
0000
0000
0000
,  // measure 48
1000
1100
0001
0101
,  // measure 49
1000
0000
0000
1000
0000
0000
1000
0000
0001
0000
0000
0000
1001
0000
0000
0000
,  // measure 50
0010
0110
0100
0110
,  // measure 51
0010
0000
0000
0010
0000
0000
0010
0000
0001
0000
0000
0000
0011
0000
0000
0000
,  // measure 52
1000
1100
0001
0101
,  // measure 53
0100
0000
0000
0100
0000
0000
0100
0000
0010
0000
0000
0000
0110
0000
0000
0000
,  // measure 54
0010
1010
1000
1001
,  // measure 55
0022
0000
0000
0000
,  // measure 56
0000
0000
0000
0000
0000
0000
0000
0000
0000
0000
0000
0000
0030
0000
0000
2000
,  // measure 57
0000
0000
0000
0000
,  // measure 58
0000
0000
0000
3003
;

//---------------dance-single - Chewi----------------
#NOTES:
     dance-single:
     Chewi:
     Beginner:
     3:
     0.120,0.132,0.000,0.119,0.000:
0000
0000
0000
0000
,
0000
0000
0000
0000
,
0000
0000
0000
0000
,
0000
0000
0000
0000
,
0010
0000
0010
0000
,
1000
0000
1000
0000
,
0100
0000
0100
0000
,
0001
0000
0001
0000
,
1000
0000
0010
0000
,
0001
0000
0001
0000
,
0001
0000
0010
0000
,
1000
0000
1000
0000
,
2000
0000
0000
0000
,
0000
0000
0000
3000
,
0002
0000
0000
0000
,
0000
0000
0000
0003
,
0001
0000
1000
0000
,
0001
0000
1000
0000
,
1000
0000
0001
0000
,
1000
0000
0001
0000
,
0200
0000
0000
0300
,
0100
0000
0000
0000
,
0020
0000
0000
0030
,
0010
0000
0000
0000
,
2000
0000
0000
3000
,
1000
0000
0000
0000
,
0020
0000
0000
0030
,
0010
0000
0000
0000
,
1000
0000
0001
0000
,
2000
0000
0000
3000
,
1000
0000
0001
0000
,
2000
0000
0000
3000
,
1000
0000
0100
0000
,
0020
0000
0000
0030
,
0010
0000
0010
0000
,
0001
0000
0001
0000
,
0010
0000
0010
0000
,
1000
0000
1000
0000
,
0001
0000
0100
0000
,
1000
0000
1000
0000
,
1000
0000
0100
0000
,
0001
0000
0001
0000
,
0002
0000
0000
0000
,
0000
0000
0000
0003
,
2000
0000
0000
0000
,
0000
0000
0000
3000
,
0010
0000
0010
0000
,
1000
0000
1000
0000
,
0100
0000
0100
0000
,
0001
0000
0001
0000
,
1000
0000
0010
0000
,
0001
0000
0001
0000
,
0001
0000
0010
0000
,
1000
0000
1000
0000
,
2000
0000
0000
0000
,
0000
0000
0000
3000
,
0002
0000
0000
0000
,
0000
0000
0000
0003
;

//---------------dance-single - Chewi----------------
#NOTES:
     dance-single:
     Chewi:
     Easy:
     5:
     0.191,0.237,0.000,0.119,0.000:
0000
0000
0000
0000
,
0000
0000
0000
0000
,
0000
0000
0000
0000
,
0000
0000
0000
0000
,
0010
0010
0010
0000
,
1000
0001
1000
0000
,
0100
0100
0100
0000
,
0001
1000
0001
0000
,
1000
0100
0010
0000
,
0001
0010
0001
0000
,
0001
0100
0010
0000
,
1000
0010
1000
0000
,
2000
0000
0000
0000
,
0000
0000
0000
3000
,
0002
0000
0000
0000
,
0000
0000
0000
0003
,
0001
0100
1000
0100
,
0001
0100
1000
0010
,
1000
0010
0001
0010
,
1000
0010
0001
0010
,
0200
0000
0000
0310
,
0100
0010
0001
0100
,
0020
0000
0000
0130
,
0100
0010
1000
0001
,
2000
0000
0000
3001
,
0001
0010
0100
1000
,
0020
0000
0000
0130
,
0100
0010
1000
0001
,
1000
0100
0001
0010
,
2000
0000
0000
3000
,
1000
0010
0001
0100
,
2000
0000
0000
3000
,
1000
0010
0100
0001
,
0020
0000
0000
0030
,
0100
0100
0100
0000
,
0001
1000
0001
0000
,
0010
0010
0010
0000
,
1000
0001
1000
0000
,
0001
0010
0100
0000
,
1000
0100
1000
0000
,
1000
0010
0100
0000
,
0001
0100
0001
0000
,
0002
0000
0000
0000
,
0000
0000
0000
0003
,
2000
0000
0000
0000
,
0000
0000
0000
3000
,
0010
0010
0010
0000
,
1000
0001
1000
0000
,
0100
0100
0100
0000
,
0001
1000
0001
0000
,
1000
0100
0010
0000
,
0001
0010
0001
0000
,
0001
0100
0010
0000
,
1000
0010
1000
0000
,
2000
0000
0000
0000
,
0000
0000
0000
3000
,
0002
0000
0000
0000
,
0000
0000
0000
0003
;
