#TITLE:Space Drive;
#SUBTITLE:;
#ARTIST:MACHO ROBOT;
#TITLETRANSLIT:;
#SUBTITLETRANSLIT:;
#ARTISTTRANSLIT:;
#CREDIT:Chewi☆;
#BANNER:Space Drive.png;
#BACKGROUND:Space Drive-bg.png;
#LYRICSPATH:;
#CDTITLE:;
#MUSIC:Space Drive.mp3;
#OFFSET:-0.097;
#SAMPLESTART:56.985;
#SAMPLELENGTH:15.000;
#SELECTABLE:YES;
#BPMS:0.000=135.000;
#STOPS:;
#BGCHANGES:;

//---------------dance-single - Chewi----------------
#NOTES:
     dance-single:
     Chewi:
     Beginner:
     2:
     0.078,0.128,0.056,0.000,0.000: // measure 1
0000
0000
0000
0000
,  // measure 2
0000
0000
0000
0000
,  // measure 3
0000
0000
0000
0000
,  // measure 4
0000
0000
0000
0000
,  // measure 5
1000
0000
0000
0000
,  // measure 6
1000
0000
0000
0000
,  // measure 7
0001
0000
0000
0000
,  // measure 8
0001
0000
0000
0000
,  // measure 9
0001
0000
0000
0000
,  // measure 10
1000
0000
0000
0000
,  // measure 11
0001
0000
0000
0000
,  // measure 12
1000
0000
0000
0000
,  // measure 13
0001
0000
0000
0000
,  // measure 14
0001
0000
0000
0000
,  // measure 15
1000
0000
0000
0000
,  // measure 16
1000
0000
0000
0000
,  // measure 17
0110
0000
0000
0000
,  // measure 18
1000
0000
0000
0000
,  // measure 19
0010
0000
0000
0000
,  // measure 20
1001
0000
0000
0000
,  // measure 21
1000
0000
0000
0000
,  // measure 22
0001
0000
0000
0000
,  // measure 23
0001
0000
0000
0000
,  // measure 24
0100
0000
0000
0000
,  // measure 25
1000
0000
0000
0000
,  // measure 26
0010
0000
0000
0000
,  // measure 27
0100
0000
0000
0000
,  // measure 28
0001
0000
0000
0000
,  // measure 29
0010
0000
0000
0000
,  // measure 30
0100
0000
0000
0000
,  // measure 31
0010
0000
0000
0000
,  // measure 32
1000
0000
0000
0000
,  // measure 33
1000
0000
0000
0000
,  // measure 34
1000
0000
0000
0000
,  // measure 35
0010
0000
0000
0000
,  // measure 36
0001
0000
0000
0000
,  // measure 37
0100
0000
0000
0000
,  // measure 38
0010
0000
0000
0000
,  // measure 39
1000
0000
0000
0000
,  // measure 40
0001
0000
0000
0000
,  // measure 41
0100
0000
0000
0000
,  // measure 42
0010
0000
0000
0000
,  // measure 43
1000
0000
0000
0000
,  // measure 44
0010
0000
0000
0000
,  // measure 45
0010
0000
0000
0000
,  // measure 46
0100
0000
0000
0000
,  // measure 47
1000
0000
0000
0000
,  // measure 48
0010
0000
0000
0000
,  // measure 49
0110
0000
0000
0000
,  // measure 50
0010
0000
0000
0000
,  // measure 51
1001
0000
0000
0000
,  // measure 52
0001
0000
0000
0000
,  // measure 53
0110
0000
0000
0000
,  // measure 54
0100
0000
0000
0000
,  // measure 55
1001
0000
0000
0000
,  // measure 56
1000
0000
0000
0000
,  // measure 57
0001
0000
0000
0000
,  // measure 58
1000
0000
0000
0000
,  // measure 59
1000
0000
0000
0000
,  // measure 60
0001
0000
0000
0000
,  // measure 61
0010
0000
0000
0000
,  // measure 62
0100
0000
0000
0000
,  // measure 63
0010
0000
0000
0000
,  // measure 64
0010
0000
0000
0000
,  // measure 65
1001
0000
0000
0000
;

//---------------dance-single - Chewi----------------
#NOTES:
     dance-single:
     Chewi:
     Easy:
     4:
     0.175,0.231,0.072,0.000,0.000: // measure 1
0000
0000
0000
0000
,  // measure 2
0000
0000
0000
0000
,  // measure 3
0000
0000
0000
0000
,  // measure 4
0000
0000
0000
0000
,  // measure 5
1000
0000
1000
0000
,  // measure 6
1001
0000
0000
0000
,  // measure 7
0001
0000
0001
0000
,  // measure 8
1001
0000
0000
0000
,  // measure 9
0001
0000
0100
0000
,  // measure 10
1000
0000
0010
0000
,  // measure 11
0001
0000
0010
0000
,  // measure 12
1000
0000
0100
0000
,  // measure 13
0001
0000
1000
0000
,  // measure 14
0001
1000
0001
0000
,  // measure 15
1000
0000
0001
0000
,  // measure 16
1000
0001
1000
0000
,  // measure 17
0110
0000
0000
0000
,  // measure 18
1000
0000
0000
0000
,  // measure 19
0010
0000
0000
0000
,  // measure 20
1001
0000
0000
0000
,  // measure 21
1000
1000
1000
0000
,  // measure 22
0001
0001
0001
0000
,  // measure 23
0001
0000
0010
0000
,  // measure 24
0100
0000
1000
0000
,  // measure 25
1000
1000
1000
0000
,  // measure 26
0010
0010
0010
0000
,  // measure 27
0100
0100
0100
0000
,  // measure 28
0001
0001
0001
0000
,  // measure 29
0010
0010
0010
0010
,  // measure 30
0100
0100
0100
0100
,  // measure 31
0010
0100
0010
0100
,  // measure 32
1000
0000
0000
0000
,  // measure 33
1000
1000
1000
0000
,  // measure 34
1000
0000
0100
0000
,  // measure 35
0010
0010
0010
0000
,  // measure 36
0001
0000
0001
0000
,  // measure 37
0100
0100
0100
0000
,  // measure 38
0010
0000
0010
0000
,  // measure 39
1000
1000
1000
0000
,  // measure 40
0001
0000
1000
0000
,  // measure 41
0100
0100
0100
0000
,  // measure 42
0010
0000
0100
0000
,  // measure 43
1000
1000
1000
0000
,  // measure 44
0010
0000
1000
0000
,  // measure 45
0010
0010
0010
0000
,  // measure 46
0100
0000
0001
0000
,  // measure 47
1000
1000
0001
0000
,  // measure 48
0010
0000
0100
0000
,  // measure 49
0110
0000
0000
0000
,  // measure 50
0010
0100
0010
0000
,  // measure 51
1001
0000
0000
0000
,  // measure 52
0001
1000
0001
0000
,  // measure 53
0110
0000
0000
0000
,  // measure 54
0100
0010
0100
0000
,  // measure 55
1001
0000
0000
0000
,  // measure 56
1000
0001
1000
0000
,  // measure 57
0001
0010
1000
0000
,  // measure 58
1000
1000
0001
0000
,  // measure 59
1000
0100
0001
0000
,  // measure 60
0001
0001
1000
0000
,  // measure 61
0010
0100
0010
0000
,  // measure 62
0100
0100
0100
0000
,  // measure 63
0010
0100
0010
0000
,  // measure 64
0010
0010
0010
0000
,  // measure 65
1001
0000
0000
0000
;

//---------------dance-single - Chewi----------------
#NOTES:
     dance-single:
     Chewi:
     Medium:
     7:
     0.328,0.385,0.168,0.072,0.016: // measure 1
0000
0000
0000
0000
,  // measure 2
0000
0000
0000
0000
,  // measure 3
0000
0000
0000
0000
,  // measure 4
0000
0000
0000
0000
,  // measure 5
1000
0000
0000
0001
0000
0001
1000
0000
0000
1000
0000
1000
,  // measure 6
0001
0000
0000
0000
,  // measure 7
0001
0000
0000
1000
0000
1000
0001
0000
0000
0001
0000
0001
,  // measure 8
2000
0000
3001
0000
,  // measure 9
1000
0100
0010
0001
,  // measure 10
1000
1100
0001
0101
,  // measure 11
1000
0010
0100
0001
,  // measure 12
1000
1010
0001
0011
,  // measure 13
0010
0100
1000
0001
,  // measure 14
1000
1100
0001
0101
,  // measure 15
1000
0010
0100
0001
,  // measure 16
1000
1010
0001
0101
,  // measure 17
0102
0000
0200
0303
,  // measure 18
0001
0100
0010
1000
,  // measure 19
2010
0000
0020
3030
,  // measure 20
1000
0100
0010
0100
,  // measure 21
2100
0000
0200
3300
,  // measure 22
1000
0001
0100
0010
,  // measure 23
0210
0000
0020
0330
,  // measure 24
0100
0100
0100
0100
,  // measure 25
0010
0010
0100
0100
,  // measure 26
0010
1000
0100
0001
,  // measure 27
0010
0010
0100
0100
,  // measure 28
1000
0100
1000
0000
0001
0100
0001
0000
,  // measure 29
0001
0001
1000
1000
,  // measure 30
0100
0100
0010
0010
,  // measure 31
0010
0100
0010
0100
0010
0100
0010
0000
,  // measure 32
0001
1000
0001
1000
0001
1000
0001
0000
,  // measure 33
1000
0100
0001
0100
,  // measure 34
1000
0000
0010
0000
0100
0100
0001
0000
,  // measure 35
1000
0010
0001
0010
,  // measure 36
0001
0000
0010
0000
0100
0100
1000
0000
,  // measure 37
0001
0100
0001
0010
,  // measure 38
0100
0000
0010
0000
0100
0100
1000
0000
,  // measure 39
0010
1000
0010
0100
,  // measure 40
0010
0000
1000
0000
0100
0100
0010
0000
,  // measure 41
0001
0101
0001
0101
,  // measure 42
0100
0001
0100
0000
0001
0100
0001
0000
,  // measure 43
1000
1100
1000
1100
,  // measure 44
1000
0100
1000
0000
0100
1000
0100
0000
,  // measure 45
1000
1001
0001
1001
,  // measure 46
1000
0001
1000
0000
0001
1000
0001
0000
,  // measure 47
0100
0110
0100
0110
,  // measure 48
0010
0100
0010
0000
0100
0010
0100
0000
,  // measure 49
0010
1000
0100
0000
,  // measure 50
0010
0001
0100
0000
,  // measure 51
0001
0001
0001
0000
1000
1000
1000
0000
,  // measure 52
0001
0010
0100
1000
,  // measure 53
0010
0001
0100
1000
,  // measure 54
0010
1000
0010
1000
,  // measure 55
0010
1000
0100
0001
,  // measure 56
0010
0001
0010
0001
,  // measure 57
1000
0000
0100
0000
1000
0100
1000
0000
,  // measure 58
0001
0100
0010
1000
,  // measure 59
0001
0000
0100
0000
0001
0100
0001
0000
,  // measure 60
0100
0010
1000
0001
,  // measure 61
1000
0000
0100
0000
1000
0100
1000
0000
,  // measure 62
0100
0010
0100
1000
,  // measure 63
0010
0000
0100
0000
0001
0100
0001
0000
,  // measure 64
0100
0100
0010
0010
,  // measure 65
1001
0000
0000
0000
;

//---------------dance-single - Chewi----------------
#NOTES:
     dance-single:
     Chewi:
     Hard:
     10:
     0.433,0.462,0.257,0.112,0.040: // measure 1
0000
0000
0000
0000
,  // measure 2
0000
0000
0000
0000
,  // measure 3
0000
0000
0000
0000
,  // measure 4
0000
0000
0000
0000
,  // measure 5
1000
0000
0000
0001
1000
0001
1000
0000
0000
0010
0100
0010
,  // measure 6
0100
0100
0100
0000
,  // measure 7
0010
0000
0000
0100
0010
0100
0010
0000
0000
1000
0001
1000
,  // measure 8
0001
0001
0001
0000
,  // measure 9
1000
0000
0100
0000
0010
0100
1000
0000
,  // measure 10
0001
0000
0100
0000
0010
0100
0001
0000
,  // measure 11
1000
0000
0010
0000
0100
0010
1000
0000
,  // measure 12
0002
0023
0230
2300
,  // measure 13
3010
0000
0100
0000
0001
0100
0010
0000
,  // measure 14
0100
0000
0001
0000
1000
0100
0010
0000
,  // measure 15
0100
0000
1000
0000
0001
0010
0100
0000
,  // measure 16
0020
0032
0203
2300
,  // measure 17
3010
0000
0110
0000
,  // measure 18
1001
0000
0000
0000
0000
1000
0000
0000
,  // measure 19
0100
0000
0110
0000
,  // measure 20
0010
0001
0010
1000
0010
0001
0010
1000
,  // measure 21
0010
0000
0011
0000
,  // measure 22
1100
0000
0000
0000
0000
1000
0000
0000
,  // measure 23
0100
0001
0100
1000
0100
0001
0100
1000
,  // measure 24
0010
0001
0010
1000
,  // measure 25
1100
0000
1100
0000
0100
0100
0100
0000
,  // measure 26
0010
0001
0100
0000
0001
0000
0101
0000
,  // measure 27
1000
0010
0100
0000
0010
0000
1010
0000
,  // measure 28
2000
3200
0302
0013
,  // measure 29
0011
0000
0011
0000
0010
0010
0010
0000
,  // measure 30
1000
0100
0010
0000
0001
0000
0101
0000
,  // measure 31
0001
0010
0100
0000
0010
0000
0011
0000
,  // measure 32
0002
2003
3020
0130
,  // measure 33
0101
0000
0101
0000
0001
0100
0001
0000
,  // measure 34
0001
0010
0100
0010
0001
0100
0010
0000
,  // measure 35
1010
0000
1010
0000
1000
0010
1000
0000
,  // measure 36
1000
0100
0010
0100
1000
0010
1000
0000
,  // measure 37
0110
0000
0110
0000
0010
0100
0010
0000
,  // measure 38
1000
0100
0010
0001
1000
0100
0001
0000
,  // measure 39
1001
0000
1001
0000
0001
1000
0100
0000
,  // measure 40
0001
0100
0010
1000
0001
1000
0010
0000
,  // measure 41
1100
0000
1100
0000
1000
0100
0010
0000
,  // measure 42
0001
0100
1000
0001
0010
1000
0001
0000
,  // measure 43
0101
0000
0101
0000
0001
0100
0010
0000
,  // measure 44
1000
0010
0001
1000
0100
0001
1000
0000
,  // measure 45
1001
0000
1001
0000
0100
0010
0100
0000
,  // measure 46
0010
1000
0100
0001
0100
1000
0010
0000
,  // measure 47
0110
0000
0110
0000
0001
1000
0001
0000
,  // measure 48
1000
0100
0001
0010
0001
0100
1000
0000
,  // measure 49
0010
0100
0001
0000
0100
0000
0110
0000
,  // measure 50
1000
0100
0010
0000
0001
0000
0011
0000
,  // measure 51
0000
0001
0001
0000
1000
0010
1000
0000
,  // measure 52
0000
1000
1000
0000
0001
0010
0001
0010
,  // measure 53
0000
0000
0000
0100
0000
0000
0010
0000
0000
0000
0001
0000
0000
0000
0000
1000
0000
0000
0100
0000
0000
1000
0000
0000
,  // measure 54
0000
0010
1000
0010
0001
0010
1000
0010
,  // measure 55
0000
0000
0000
1000
0000
0000
0100
0000
0000
0000
0001
0000
0000
0000
0000
1000
0000
0000
0010
0000
0000
0001
0000
0000
,  // measure 56
0100
0001
0100
1000
0100
0001
0100
1000
,  // measure 57
0010
0010
0010
0000
0000
0100
0100
0100
,  // measure 58
0010
1000
0001
0010
0100
1000
0100
0001
,  // measure 59
0100
0100
0100
0010
0100
0001
1000
0100
,  // measure 60
0010
0100
1000
0100
0010
0100
1000
0010
,  // measure 61
0001
0100
0001
0010
0000
0001
0100
0001
,  // measure 62
0010
1000
0100
0000
0000
0010
0010
0010
,  // measure 63
0010
0001
0010
0001
1000
0100
1000
0100
,  // measure 64
1000
0001
1000
0001
0100
0010
0100
0010
,  // measure 65
0110
0000
0000
0000
;
