#TITLE:Soundwaves;
#SUBTITLE:;
#ARTIST:Angie Be;
#TITLETRANSLIT:;
#SUBTITLETRANSLIT:;
#ARTISTTRANSLIT:;
#GENRE:;
#CREDIT:Chewphoria~;
#MENUCOLOR:;
#METERTYPE:DDR;
#BANNER:Soundwaves.png;
#BACKGROUND:Soundwaves-bg.png;
#LYRICSPATH:;
#CDTITLE:;
#MUSIC:Soundwaves.mp3;
#OFFSET:-2.141;
#SAMPLESTART:57.496;
#SAMPLELENGTH:15.000;
#SELECTABLE:YES;
#LISTSORT:;
#DISPLAYBPM:130.000;
#BPMS:0.000=130.060;
#STOPS:;
#BGCHANGES:-4.282=Soundwaves.avi=1.000=1=0=1,
99999=-nosongbg-=1.000=0=0=0 // don't automatically add -songbackground-
;
#ATTACKS:;

//---------------dance-single - Chewphoria~----------------
#NOTES:
     dance-single:
     Chewphoria~:
     Beginner:
     1:
     0.092,0.127,0.033,0.000,0.000: // measure 1
0000
0000
0000
0000
,  // measure 2
1000
0000
0000
0000
,  // measure 3
0001
0000
0000
0000
,  // measure 4
0100
0000
0000
0000
,  // measure 5
0010
0000
0000
0000
,  // measure 6
1001
0000
0000
0000
,  // measure 7
1000
1000
0000
0000
,  // measure 8
0001
0000
0000
0000
,  // measure 9
0100
0000
0000
0000
,  // measure 10
0010
0000
0000
0000
,  // measure 11
1000
0000
0000
0000
,  // measure 12
0001
0000
0000
0000
,  // measure 13
0100
0000
0000
0000
,  // measure 14
1001
0000
0000
0000
,  // measure 15
1000
0000
0000
0000
,  // measure 16
0100
0000
0000
0000
,  // measure 17
0100
0000
0000
0000
,  // measure 18
1000
0000
0000
0000
,  // measure 19
0010
0000
0000
0000
,  // measure 20
0001
0000
0000
0000
,  // measure 21
0100
0000
0000
0000
,  // measure 22
1000
1000
1000
0000
,  // measure 23
1000
0000
0000
0000
,  // measure 24
0001
0000
0000
0000
,  // measure 25
0001
0000
0000
0000
,  // measure 26
0010
0010
0010
0000
,  // measure 27
0010
0000
0000
0000
,  // measure 28
0100
0000
0000
0000
,  // measure 29
0100
0000
0000
0000
,  // measure 30
1001
0000
0000
0000
,  // measure 31
1000
0000
0000
0000
,  // measure 32
0010
0000
0000
0000
,  // measure 33
0001
0000
0000
0000
,  // measure 34
0100
0000
0000
0000
,  // measure 35
0100
0000
0000
0000
,  // measure 36
1000
0000
0000
0000
,  // measure 37
0001
0000
0000
0000
,  // measure 38
0010
0000
0000
0000
,  // measure 39
1000
0000
0100
0000
,  // measure 40
0100
0000
0000
0000
,  // measure 41
0001
0000
0100
0000
,  // measure 42
0100
0000
0000
0000
,  // measure 43
1000
0000
0010
0000
,  // measure 44
0010
0000
0000
0000
,  // measure 45
0001
0000
0000
0000
,  // measure 46
1000
1000
1000
0000
;

//---------------dance-single - Chewphoria~----------------
#NOTES:
     dance-single:
     Chewphoria~:
     Easy:
     3:
     0.217,0.257,0.156,0.100,0.000: // measure 1
0000
0000
0000
0000
,  // measure 2
2000
0000
0000
0000
,  // measure 3
3020
0000
0000
0000
,  // measure 4
0230
0000
0000
0000
,  // measure 5
0302
0000
0000
0000
,  // measure 6
1003
0000
0000
0000
,  // measure 7
1000
0001
0010
0100
,  // measure 8
1000
0000
0000
0000
,  // measure 9
0000
0000
0000
0000
,  // measure 10
1001
0000
0000
0000
,  // measure 11
0001
1000
0010
0100
,  // measure 12
0001
0000
0001
0000
,  // measure 13
0100
0000
0100
0000
,  // measure 14
0110
0000
0010
1000
,  // measure 15
0100
0001
0100
1000
,  // measure 16
0010
0000
0100
0000
,  // measure 17
0001
0000
0100
0000
,  // measure 18
0010
1000
0010
1000
,  // measure 19
0100
1000
0100
1000
,  // measure 20
0100
0000
0100
0000
,  // measure 21
0001
0000
0001
0000
,  // measure 22
0010
0000
0110
0000
,  // measure 23
0100
0000
0101
0000
,  // measure 24
0001
0000
1000
0000
,  // measure 25
1000
1000
1000
1000
,  // measure 26
0001
0000
1001
0000
,  // measure 27
0100
0000
0110
0000
,  // measure 28
0010
0000
0101
0000
,  // measure 29
0001
0100
1000
0100
,  // measure 30
0020
0000
0000
0030
,  // measure 31
0010
0100
1000
0010
,  // measure 32
0100
0001
0100
0100
,  // measure 33
0100
0000
0110
0000
,  // measure 34
1001
0000
1001
0000
,  // measure 35
0001
0010
0100
1000
,  // measure 36
0010
0100
0001
0100
,  // measure 37
0200
0000
0310
0000
,  // measure 38
0020
0000
0130
0000
,  // measure 39
1000
0100
0010
0001
,  // measure 40
1000
0100
0001
0100
,  // measure 41
0110
0000
1001
0000
,  // measure 42
1001
0000
0110
0000
,  // measure 43
0001
0010
0100
1000
,  // measure 44
0010
0100
1000
0010
,  // measure 45
0200
0000
0301
0000
,  // measure 46
0200
0000
1300
0010
,  // measure 47
0100
0000
0000
0000
;

//---------------dance-single - Chewphoria~----------------
#NOTES:
     dance-single:
     Chewphoria~:
     Medium:
     7:
     0.387,0.384,0.179,0.212,0.022: // measure 1
0000
0000
0000
0000
,  // measure 2
0002
0000
0203
0000
0010
0010
0310
0000
,  // measure 3
0020
0000
2030
0000
0010
0010
3010
0000
,  // measure 4
2000
0000
3002
0000
0010
0010
0013
0000
,  // measure 5
0010
0100
1000
0000
0100
0000
0101
0000
,  // measure 6
0100
0010
1000
0100
,  // measure 7
0001
0010
1000
0100
,  // measure 8
0010
0001
0010
0000
0001
0000
0001
0000
,  // measure 9
1000
0100
1000
0000
0100
0000
0100
0000
,  // measure 10
2000
0001
0010
3001
,  // measure 11
0002
0100
0010
1003
,  // measure 12
1000
0100
0001
0010
,  // measure 13
1000
0010
0001
0100
,  // measure 14
0100
1000
0100
0000
1000
0000
0010
0000
,  // measure 15
0100
0001
0100
0000
0001
0000
0010
0000
,  // measure 16
0100
1100
0100
0101
,  // measure 17
0010
0100
0010
0100
,  // measure 18
0001
0100
0001
0000
1000
0100
1000
0000
,  // measure 19
0001
1000
0001
0000
0100
0000
0010
0000
,  // measure 20
2000
0010
0001
3100
,  // measure 21
0200
1000
0001
1300
,  // measure 22
1100
0000
0000
0000
0101
0000
0000
0000
0100
0000
0000
0100
0000
0000
0010
0000
,  // measure 23
0010
0000
0000
0000
1000
0000
0000
0000
0010
0000
0000
0010
0000
0000
0100
0000
,  // measure 24
0100
0001
0100
0010
,  // measure 25
1000
0001
1000
0000
0001
1000
0001
0000
,  // measure 26
0010
0000
0000
0000
0100
0000
0000
0000
1000
0000
0000
1000
0000
0000
0001
0000
,  // measure 27
0001
0000
0000
0000
0100
0000
0000
0000
0010
0000
0000
0010
0000
0000
0100
0000
,  // measure 28
0100
0001
0100
0010
,  // measure 29
1000
0001
0010
0100
,  // measure 30
1000
0001
0000
0000
0001
1000
0001
0000
,  // measure 31
0101
0000
1010
0000
1000
0010
0001
0000
,  // measure 32
0010
1000
0100
0001
,  // measure 33
0010
0110
0100
0110
,  // measure 34
1000
1001
0001
1001
,  // measure 35
2000
3020
0032
0203
,  // measure 36
0301
0100
0010
1000
,  // measure 37
0001
1000
0001
0000
0010
0000
0100
0000
,  // measure 38
0010
0100
0010
0000
0001
0000
0010
0000
,  // measure 39
0100
0000
1000
0000
0100
0001
0010
0000
,  // measure 40
1000
0000
0010
0000
1000
0100
1000
0000
,  // measure 41
0001
1001
1000
1010
,  // measure 42
0010
0110
0100
0101
,  // measure 43
0001
0100
0001
0000
1000
0100
1000
0000
,  // measure 44
0001
1000
0010
0000
0010
0000
0110
0000
,  // measure 45
0020
2030
3200
0302
,  // measure 46
0023
0000
0130
0000
1000
0001
1000
0001
;

//---------------dance-single - Chewphoria~----------------
#NOTES:
     dance-single:
     Chewphoria~:
     Hard:
     10:
     0.499,0.488,0.435,0.167,0.056: // measure 1
0000
0000
0000
0000
,  // measure 2
2010
0000
3002
0000
0103
0010
1000
0001
,  // measure 3
0012
0000
2003
0000
3010
0100
0001
0100
,  // measure 4
0210
0000
0302
0000
0013
0100
1000
0100
,  // measure 5
0002
0000
0103
0000
2000
0000
3010
0001
,  // measure 6
0101
0100
0010
1010
,  // measure 7
1000
0010
0001
0010
1000
0100
0001
0100
,  // measure 8
0100
0000
0000
0100
0010
0000
0000
0000
0010
0000
0000
0010
1000
0000
0000
0000
,  // measure 9
1000
0000
0000
1000
0001
0000
0000
0000
0001
0000
0000
0001
0010
0000
0000
0000
,  // measure 10
0100
0010
0001
0010
0100
1000
0100
0100
,  // measure 11
1000
0000
0000
1000
0010
0000
0000
0000
0001
0000
0000
0001
0100
0000
0000
0000
,  // measure 12
1000
0000
1100
0000
0001
0001
0001
0000
,  // measure 13
0010
0000
0110
0000
0010
0010
0010
0000
,  // measure 14
1001
0000
1000
0000
0100
0001
0010
1000
,  // measure 15
0100
0000
1100
0000
1000
0010
0001
0100
,  // measure 16
0010
0000
1010
0000
0010
0010
0010
0000
,  // measure 17
0001
0000
0011
0000
0100
0100
0100
0000
,  // measure 18
0010
0001
0010
1000
0010
0010
0001
0000
,  // measure 19
0100
0010
0100
0001
0100
0010
1000
0000
,  // measure 20
0001
1000
0100
0000
1000
0001
0001
0000
,  // measure 21
1000
0001
0010
0000
0001
0100
0100
0000
,  // measure 22
1010
0000
0000
0000
0001
0000
0000
0000
0100
0000
0000
0100
0000
0000
0010
0000
,  // measure 23
1000
0000
0000
0000
0100
0000
0000
0000
0010
0000
0000
0001
0000
0000
0010
0000
,  // measure 24
0100
1100
0101
1100
,  // measure 25
1000
0010
0001
0010
1000
0100
0001
0100
,  // measure 26
0010
0000
0000
0000
0110
0000
0000
0000
0101
0000
0000
0100
0000
0000
0010
0000
,  // measure 27
1000
0000
0000
0000
1001
0000
0000
0000
1000
0000
0000
0100
0000
0000
0010
0000
,  // measure 28
0001
0011
1000
1010
,  // measure 29
1000
0010
0100
0001
0100
0010
1000
0001
,  // measure 30
2000
0001
0000
0000
0001
0000
3010
0000
,  // measure 31
2000
0000
3020
0000
1030
0100
0010
0001
,  // measure 32
0010
0000
0010
0000
0001
0100
1000
0010
,  // measure 33
0001
0011
1000
1010
,  // measure 34
0010
0100
1001
0000
0010
0100
1001
0000
,  // measure 35
2000
0000
3200
0000
0310
0001
0010
0100
,  // measure 36
1000
1010
0001
0011
,  // measure 37
0100
0010
1001
0000
0010
0100
1001
0000
,  // measure 38
1000
0100
0010
1000
0100
0001
0100
1000
,  // measure 39
0020
0000
0032
0000
0013
1000
0010
0100
,  // measure 40
0101
0000
1100
0000
1000
0100
0010
0001
,  // measure 41
0010
1100
1010
0101
,  // measure 42
0011
0110
1001
0110
,  // measure 43
1000
0010
0100
0000
0001
0100
0010
0000
,  // measure 44
1000
0001
1000
0001
0000
0101
0000
1010
,  // measure 45
0000
1000
0010
0000
0100
0001
0100
0000
,  // measure 46
0010
0100
0001
1000
0100
0010
0001
1000
,  // measure 47
0001
0000
0000
0000
;
