#TITLE:Something Like A Party;
#SUBTITLE:;
#ARTIST:School Gyrls;
#TITLETRANSLIT:;
#SUBTITLETRANSLIT:;
#ARTISTTRANSLIT:;
#GENRE:;
#CREDIT:Chewi☆;
#MENUCOLOR:#FFFF00;
#METERTYPE:DDR X;
#BANNER:Something Like A Party.png;
#BACKGROUND:Something Like A Party-bg.png;
#LYRICSPATH:;
#CDTITLE:./CDTITLES/DanceDanceRevolution skyMIX2 -FREEDOM-.png;
#MUSIC:Something Like A Party.mp3;
#OFFSET:-1.543;
#SAMPLESTART:75.380;
#SAMPLELENGTH:15.000;
#SELECTABLE:YES;
#LISTSORT:;
#DISPLAYBPM:130.000;
#BPMS:0.000=130.000;
#STOPS:;
#BGCHANGES:;
#ATTACKS:;

//---------------dance-single - Chewi----------------
#NOTES:
     dance-single:
     Chewi:
     Beginner:
     1:
     0.075,0.103,0.037,0.000,0.000:
0000
0000
0000
0000
,
0000
0000
0000
0000
,
0000
0000
0000
0000
,
0000
0000
0000
0000
,
1000
0000
0000
0000
,
0100
0000
0000
0000
,
0001
0000
0000
0000
,
0010
0000
0000
0000
,
1000
0000
0000
0000
,
0001
0000
0000
0000
,
0110
0000
0000
0000
,
1000
0000
0000
0000
,
1000
0000
0000
0000
,
0001
0000
0000
0000
,
0110
0000
0000
0000
,
0010
0000
0000
0000
,
0001
0000
0000
0000
,
0010
0000
0000
0000
,
0001
0000
0000
0000
,
0100
0000
0000
0000
,
0010
0000
0000
0000
,
1000
0000
0000
0000
,
0100
0000
0000
0000
,
0010
0000
0000
0000
,
0100
0000
0000
0000
,
0010
0000
0000
0000
,
0001
0000
0000
0000
,
1000
0000
0000
0000
,
1000
0000
0000
0000
,
0001
0000
0000
0000
,
0001
0000
0000
0000
,
1000
0000
0000
0000
,
0100
0000
0000
0000
,
1000
0000
0000
0000
,
0010
0000
0000
0000
,
0100
0000
0000
0000
,
0100
0000
0000
0000
,
0001
0000
0000
0000
,
0010
0000
0000
0000
,
0100
0000
0000
0000
,
0010
0000
0000
0000
,
0010
0000
0000
0000
,
1001
0000
0000
0000
,
0100
0000
0000
0000
,
1000
0000
0000
0000
,
0001
0000
0000
0000
,
1001
0000
0000
0000
,
1000
0000
0000
0000
,
1000
0000
0000
0000
,
0001
0000
0000
0000
,
0100
0000
0000
0000
,
0010
0000
0000
0000
,
0010
0000
0000
0000
,
0100
0000
0000
0000
,
1000
0000
0000
0000
,
0001
0000
0000
0000
,
0010
0000
0000
0000
;

//---------------dance-single - Chewi----------------
#NOTES:
     dance-single:
     Chewi:
     Easy:
     3:
     0.239,0.232,0.064,0.322,0.000:
0000
0000
0000
0000
,
0000
0000
0000
0000
,
0000
0000
0000
0000
,
0000
0000
0000
0000
,
1000
1000
0000
0100
,
0100
0100
0100
0000
,
0001
0001
0000
0010
,
0010
0010
0010
0000
,
1000
1000
0001
0000
,
0001
0001
1000
0000
,
0220
0000
0000
0330
,
1000
0100
0001
0100
,
1000
1000
0010
0000
,
0001
0001
0010
0000
,
0220
0000
0000
0330
,
0010
1000
0010
0001
,
0002
0000
2003
0000
,
3020
0000
0230
0000
,
0302
0000
0023
0000
,
0130
0110
0010
0000
,
0020
0000
0032
0000
,
2003
0000
3020
0000
,
0130
1000
0100
0001
,
0020
0000
0000
0030
,
0100
0100
0100
0100
,
0010
0001
0010
0000
,
0001
0001
0001
0001
,
1000
0010
1000
0000
,
1000
1001
0001
0000
,
0001
0010
0100
0000
,
0001
1001
1000
0000
,
1000
0010
0100
0000
,
0200
0000
0302
0000
,
2003
0000
3200
0000
,
0320
0000
0100
0100
,
0200
0000
0000
0330
,
0200
0000
2300
0000
,
3002
0000
0203
0000
,
0320
0000
0100
0100
,
0200
0000
0000
0330
,
0010
1000
1000
0000
,
0010
0001
0001
0000
,
2002
0000
0000
3003
,
0100
0010
0100
0000
,
1000
0100
0100
0000
,
0001
0100
0100
0000
,
2002
0000
0000
3003
,
1000
0001
0100
0010
,
2000
0001
0000
3001
,
0002
1000
0000
1003
,
0100
0010
0100
0000
,
0010
0100
0010
0000
,
0020
0100
0000
0130
,
0200
0010
0000
0310
,
1000
0001
1000
0000
,
0001
1000
0001
0000
,
0010
0000
0000
0000
;

//---------------dance-single - Chewi----------------
#NOTES:
     dance-single:
     Chewi:
     Medium:
     6:
     0.327,0.360,0.165,0.303,0.000:
0000
0000
0000
0000
,
0000
0000
0000
0000
,
0000
0000
0000
0000
,
0000
0000
0000
0000
,
1000
1000
1000
1000
,
1000
0000
1000
0000
1000
0000
1000
0001
,
0001
0001
0001
0001
,
0001
0001
0001
0001
,
0010
1000
0200
0300
,
0010
0001
0100
1000
,
0020
0000
0000
0030
,
0010
0110
1000
1001
,
0010
0001
0200
0300
,
0010
1000
0100
0001
,
0020
0000
0000
0030
,
0100
0000
0010
0000
0100
0010
0100
0000
,
0010
0001
0010
0001
,
0100
1000
0100
1000
,
0010
1000
0010
1000
,
0100
0001
0100
0001
,
0010
0100
1000
0001
,
0100
0010
1000
0001
,
1000
0001
1000
0000
0001
1000
0001
0000
,
0220
0000
0000
0330
,
0002
0023
0230
2300
,
3001
1000
0001
1000
0000
0001
0000
0000
,
2000
3200
0302
0023
,
0130
0010
0100
0010
0000
0100
0000
0000
,
0010
0100
1001
0000
,
0110
1001
0110
0000
,
0010
0000
0100
0001
1000
0001
0001
0000
,
1000
0100
0001
0100
,
1000
0001
0101
1100
,
0001
0010
1000
0100
,
0001
0010
0100
1000
,
0010
0100
0001
0100
,
0010
1000
0011
1010
,
1000
0100
0001
0010
,
0100
0001
1000
0100
,
0020
0001
0100
1030
,
0010
1000
0100
0000
0200
0000
0300
0000
,
0010
0001
0100
0000
0200
0000
0300
0000
,
0220
0000
0000
0330
,
0001
1000
1100
0101
,
1000
0010
0100
0000
0002
0000
0103
0000
,
0001
0010
0100
0000
2000
0000
3100
0000
,
2002
0000
0000
3003
,
1001
0010
1001
1010
,
0010
1000
0100
0010
,
2000
3200
0320
0032
,
0103
0010
0001
0100
,
1000
0000
0010
0000
0100
0200
0300
0000
,
0010
1000
0100
0001
,
0020
2030
3200
0320
,
0031
0000
1000
0000
0100
0000
1000
0001
,
2000
0000
0000
0000
,
3001
0000
0000
0000
;

//---------------dance-single - Chewi----------------
#NOTES:
     dance-single:
     Chewi:
     Hard:
     9:
     0.431,0.438,0.156,0.147,0.083: // measure 1
0000
0000
0000
0000
,  // measure 2
0000
0000
0000
0000
,  // measure 3
0000
0000
0000
0000
,  // measure 4
0000
0000
0000
0000
,  // measure 5
1000
0000
1000
0000
0000
0001
0000
1000
,  // measure 6
0000
0001
0000
0010
0100
0000
1000
0010
,  // measure 7
0001
0000
0100
0000
0000
0100
0000
0010
,  // measure 8
0000
0001
0000
1000
0001
0000
0001
0000
,  // measure 9
0001
0000
0100
0000
0010
0000
1000
0200
0000
0000
0000
0000
0300
0000
0000
0000
,  // measure 10
1000
0000
0100
0000
0010
0000
0001
0010
0000
1000
0010
0000
0001
0000
1000
0000
,  // measure 11
0002
0000
0000
0000
,  // measure 12
0003
0001
0010
0100
1000
0010
0100
0001
,  // measure 13
0100
0000
0010
0000
1000
0000
0100
0020
0000
0000
0000
0000
0030
0000
0000
0000
,  // measure 14
0100
0000
0010
0000
0001
0000
0100
0010
0000
0010
0100
0000
0001
0000
1000
0000
,  // measure 15
0002
0000
0000
0003
,  // measure 16
0001
0010
0100
1000
0100
0100
0001
0001
,  // measure 17
0100
1000
0010
1000
0100
1000
0010
1000
,  // measure 18
0100
0010
0001
0100
0001
0010
0001
0100
,  // measure 19
0001
0010
0100
1000
0001
0010
0100
1000
,  // measure 20
0001
1000
0010
0100
0110
0110
0000
0000
,  // measure 21
0010
0100
0001
0100
0010
0100
0001
0100
,  // measure 22
0010
1000
0100
1000
0010
1000
0100
1000
,  // measure 23
0010
0000
1000
0000
0001
0000
0010
0100
0000
0100
0010
0000
0001
0000
1000
0000
,  // measure 24
0020
1000
0100
0031
,  // measure 25
0101
1010
1001
0110
,  // measure 26
0010
0001
0100
2000
0000
3020
0000
0030
,  // measure 27
0010
0100
0010
0000
1000
0000
1001
0000
,  // measure 28
0001
0010
1000
0200
0000
2300
0000
3000
,  // measure 29
1000
0100
0010
0001
0011
0000
0001
0100
,  // measure 30
0010
1000
0100
1000
0010
0000
0100
0001
,  // measure 31
0100
0010
1000
0001
1000
1001
1001
0000
,  // measure 32
0001
0010
0100
2000
0000
3200
0000
0300
,  // measure 33
0010
0000
0000
0000
0001
0000
0100
0000
0010
0000
0000
1000
0000
0000
0010
0000
,  // measure 34
0000
0100
0001
0010
0000
0100
1000
0010
,  // measure 35
0100
0000
0000
0010
1000
0001
0010
0100
,  // measure 36
0000
0100
0000
0011
0000
1010
0000
0001
,  // measure 37
1000
0000
0000
0000
0100
0000
0010
0000
0001
0000
0000
1000
0000
0000
0010
0000
,  // measure 38
0000
0100
0000
0001
0000
0100
0010
1000
,  // measure 39
0001
0000
1000
0001
1000
0001
0000
0011
,  // measure 40
0000
0110
0000
1100
0000
1000
0001
0000
,  // measure 41
1000
0000
0001
0000
1000
0000
0010
0200
0000
0000
0000
0000
0300
0000
0000
0000
,  // measure 42
0100
0000
0010
0000
1000
0000
0100
0010
0000
0010
0001
0000
0001
0000
1000
0000
,  // measure 43
0002
0000
0000
0000
,  // measure 44
0003
0010
0100
1000
0001
0010
0100
1000
,  // measure 45
0001
0000
1000
0000
0010
0000
0100
0020
0000
0000
0000
0000
0030
0000
0000
0000
,  // measure 46
0100
0000
0010
0000
1000
0000
0001
1000
0000
0001
1000
0000
0001
0000
0010
0000
,  // measure 47
0200
0000
0000
0300
,  // measure 48
0010
0010
0001
0001
1000
0000
1001
0000
,  // measure 49
1000
0010
1000
0010
1000
0000
0001
0000
,  // measure 50
0010
0001
0010
0001
0010
0000
0100
0000
,  // measure 51
1000
0001
0100
1000
,  // measure 52
0010
0001
0010
0100
,  // measure 53
0010
0001
0010
0001
0010
0000
0100
0000
,  // measure 54
0100
1000
0100
1000
0100
0000
1000
0000
,  // measure 55
1000
0000
0001
0000
1000
0000
0001
1000
0000
0001
1000
0000
0100
0000
0010
0000
,  // measure 56
0200
0000
0000
0300
,  // measure 57
0110
0000
0000
0000
;
