#TITLE:Something Good '08 (Radio Edit);
#SUBTITLE:;
#ARTIST:Utah Saints;
#TITLETRANSLIT:;
#SUBTITLETRANSLIT:;
#ARTISTTRANSLIT:;
#GENRE:House;
#CREDIT:chewi;
#BANNER:Something Good '08 (Radio Edit).png;
#BACKGROUND:Something Good '08 (Radio Edit)-bg.png;
#LYRICSPATH:;
#CDTITLE:cdtitle.png;
#MUSIC:Something Good '08 (Radio Edit).ogg;
#OFFSET:-0.218000;
#SAMPLESTART:15.105000;
#SAMPLELENGTH:15.000000;
#SELECTABLE:YES;
#BPMS:0.000000=129.000000
;
#STOPS:
;
#BGCHANGES:-0.436=Something Good '08 (Radio Edit).avi=1.000=1=0=0=StretchNoLoop==CrossFade==,
99999=-nosongbg-=1.000=0=0=0 // don't automatically add -songbackground-
;
#KEYSOUNDS:;
#ATTACKS:;

//---------------dance-single - ----------------
#NOTES:
     dance-single:
     :
     Beginner:
     1:
     0.097838,0.154839,0.049628,0.079404,0.000000,56.000000,5.000000,8.000000,0.000000,0.000000,0.000000,0.097838,0.154839,0.049628,0.079404,0.000000,56.000000,5.000000,8.000000,0.000000,0.000000,0.000000:
// measure 0
0000
0000
0000
0000
,  // measure 1
0000
0000
0000
0000
,  // measure 2
0000
0000
0000
0000
,  // measure 3
0000
0000
0000
0000
,  // measure 4
2000
0000
0000
3000
,  // measure 5
1000
0000
0000
0000
,  // measure 6
0002
0000
0000
0003
,  // measure 7
0001
0000
0000
0000
,  // measure 8
1001
0000
0000
0000
,  // measure 9
1000
0000
0000
0000
,  // measure 10
0001
0000
0000
0000
,  // measure 11
1000
0000
0000
0000
,  // measure 12
0110
0000
0000
0000
,  // measure 13
0100
0000
0000
0000
,  // measure 14
0010
0000
0000
0000
,  // measure 15
0100
0000
0000
0000
,  // measure 16
2000
0000
0000
3000
,  // measure 17
1000
0000
0000
0000
,  // measure 18
0002
0000
0000
0003
,  // measure 19
0001
0000
0000
0000
,  // measure 20
0020
0000
0000
0030
,  // measure 21
0010
0000
0000
0000
,  // measure 22
0200
0000
0000
0300
,  // measure 23
0100
0000
0000
0000
,  // measure 24
0200
0000
0000
0300
,  // measure 25
0100
0100
0000
0000
,  // measure 26
0020
0000
0000
0030
,  // measure 27
0010
0010
0000
0000
,  // measure 28
1001
0000
0000
0000
,  // measure 29
0000
0000
0000
0000
,  // measure 30
0010
0000
0000
0000
,  // measure 31
0010
0000
0000
0000
,  // measure 32
0100
0000
0100
0000
,  // measure 33
0100
0000
0000
0000
,  // measure 34
1000
0000
1000
0000
,  // measure 35
1000
0000
0000
0000
,  // measure 36
0001
0000
0001
0000
,  // measure 37
0001
0000
0000
0000
,  // measure 38
0010
0000
0010
0000
,  // measure 39
0010
0000
0000
0000
,  // measure 40
1001
0000
0000
0000
,  // measure 41
1000
0000
0000
0000
,  // measure 42
1000
0000
0000
0000
,  // measure 43
1000
0000
0000
0000
,  // measure 44
1001
0000
0000
0000
,  // measure 45
0001
0000
0000
0000
,  // measure 46
0001
0000
0000
0000
,  // measure 47
0001
0000
0000
0000
,  // measure 48
0100
0000
0100
0000
,  // measure 49
0100
0000
0000
0000
,  // measure 50
0100
0000
0100
0000
,  // measure 51
0100
0000
0000
0000
,  // measure 52
0010
0000
0000
0000
;

//---------------dance-single - ----------------
#NOTES:
     dance-single:
     :
     Easy:
     4:
     0.147465,0.180645,0.039702,0.039702,0.000000,96.000000,4.000000,4.000000,0.000000,0.000000,0.000000,0.147465,0.180645,0.039702,0.039702,0.000000,96.000000,4.000000,4.000000,0.000000,0.000000,0.000000:
0000
0000
0000
0000
,
0000
0000
0000
0000
,
0000
0000
0000
0000
,
0000
0000
0000
0000
,
1000
0000
0000
0000
,
0001
0000
0000
0000
,
0100
0000
0000
0000
,
0010
0000
0000
0000
,
0010
0010
0010
0000
,
0100
0100
0100
0000
,
0010
0100
0010
0000
,
0100
0010
0100
0000
,
0001
0001
0001
0000
,
1000
1000
1000
0000
,
0001
1000
0001
0000
,
1000
0001
1000
0000
,
0001
0000
0001
0000
,
0010
0000
0010
0000
,
0100
0000
0100
0000
,
1000
0000
1000
0000
,
0010
0000
0010
0000
,
0100
0000
0100
0000
,
0001
0000
0001
0000
,
1000
0000
1000
0000
,
1001
0000
1000
0000
,
0100
0000
1000
0000
,
0001
0000
0100
0000
,
0001
0000
0100
0000
,
0110
0000
0000
0000
,
0000
0000
0000
0000
,
1001
0000
0000
0000
,
1000
0001
1000
0000
,
0001
0000
0010
0000
,
0100
0000
1000
0000
,
2000
0000
0000
3000
,
0002
0000
0000
0003
,
1000
0000
0010
0000
,
0100
0000
0001
0000
,
0200
0000
0000
0300
,
0020
0000
0000
0030
,
0010
0000
1000
0000
,
0100
0000
0001
0000
,
0010
0000
1000
0000
,
0010
0000
0001
0000
,
0010
0000
0100
0000
,
1000
0000
0001
0000
,
0100
0000
0010
0000
,
1000
0000
0001
0000
,
0001
0000
1000
0000
,
0001
1000
0001
0000
,
1000
0000
0001
0000
,
1000
0001
1000
0000
,
1001
0000
0000
0000
;

//---------------dance-single - ----------------
#NOTES:
     dance-single:
     :
     Medium:
     7:
     0.277916,0.309677,0.019851,0.069479,0.079404,187.000000,2.000000,7.000000,0.000000,0.000000,0.000000,0.277916,0.309677,0.019851,0.069479,0.079404,187.000000,2.000000,7.000000,0.000000,0.000000,0.000000:
0000
0000
0000
0000
,
0000
0000
0000
0000
,
0000
0000
0000
0000
,
0000
0000
0000
0000
,
2000
0000
0000
3000
,
0002
0000
0000
0003
,
0020
0000
0000
0030
,
0200
0000
0000
0300
,
0100
0100
0010
0010
,
0001
0001
0010
0010
,
0000
0000
0001
0000
0000
0001
0000
0000
0001
0000
0000
0001
0000
0000
0001
0000
,
0000
0000
1000
0000
0000
1000
0000
0000
1000
0000
0000
1000
0000
0000
1000
0000
,
1000
1000
0010
0010
,
0100
0100
0010
0010
,
0000
0000
1000
0000
0000
1000
0000
0000
1000
0000
0000
1000
0000
0000
1000
0000
,
0000
0000
0001
0000
0000
0001
0000
0000
0001
0000
0000
0001
0000
0000
0001
0000
,
1000
0100
0010
0100
,
1000
0001
1000
0001
,
0001
0100
0010
0100
,
0001
0100
0001
0100
,
0010
1000
0100
0010
,
0100
1000
0001
0010
,
0100
0010
0001
1000
,
0010
0100
0010
1000
,
0001
0000
1000
0000
0100
0100
0100
0000
,
0010
0001
1000
0010
,
0100
0000
0001
0000
0100
0100
0100
0000
,
0010
1000
0001
1000
,
2001
0000
0000
0000
,
3200
0000
0000
0000
,
0320
0000
0000
0000
,
0031
0000
0001
0000
1000
0001
0000
0001
,
1000
0100
0010
0100
,
1000
0001
0010
0100
,
0000
0000
0010
0000
0000
0010
0000
0000
0010
0000
0000
0010
0000
0000
0010
0000
,
0000
0000
0100
0000
0000
0100
0000
0000
0100
0000
0000
0100
0000
0000
0100
0000
,
0010
0100
1000
0100
,
1000
0001
0100
0010
,
0000
0000
0100
0000
0000
0100
0000
0000
0100
0000
0000
0100
0000
0000
0100
0000
,
0000
0000
0010
0000
0000
0010
0000
0000
0010
0000
0000
0010
0000
0000
0010
0000
,
1000
0010
0001
0010
,
1000
0100
0001
0100
,
1000
0010
0001
0100
,
1000
0010
0001
0100
,
1000
0100
0010
0001
,
1000
0100
0001
0100
,
1000
0010
0100
0001
,
1000
0010
0001
0010
,
0010
0010
0010
0000
0100
0000
1000
0000
,
0001
1000
0001
0000
1000
0000
0001
0000
,
0100
0100
0100
0000
0010
0000
1000
0000
,
0001
1000
0001
0000
1000
0000
0001
0000
,
1001
0000
0000
0000
;

//---------------dance-single - ----------------
#NOTES:
     dance-single:
     :
     Hard:
     12:
     0.442396,0.541935,0.168734,0.059553,0.148883,289.000000,17.000000,6.000000,0.000000,0.000000,0.000000,0.442396,0.541935,0.168734,0.059553,0.148883,289.000000,17.000000,6.000000,0.000000,0.000000,0.000000:
0000
0000
0000
0000
,
0000
0000
0000
0000
,
0000
0000
0000
0000
,
0000
0000
0000
0000
,
0001
0001
0001
0001
,
0010
0010
0010
0010
,
0100
0100
0100
0100
,
1000
0001
2002
3003
,
0001
1000
0100
0000
1000
0000
1100
0000
,
1000
0001
0100
0000
0001
0000
0101
0000
,
0000
0000
0100
0000
0000
0100
0000
0000
0100
0000
0000
0100
0000
0000
0100
0000
,
0000
0000
0010
0000
0000
0010
0000
0000
0010
0000
0000
0010
0000
0000
0010
0000
,
1000
0010
1000
0000
0001
0000
1001
0000
,
0001
0010
0001
0000
1000
0000
1001
0000
,
0000
0000
1000
0000
0000
1100
0000
0000
0001
0000
0000
0101
0000
0000
1001
0000
,
0000
0000
0001
0000
0000
0011
0000
0000
1000
0000
0000
1010
0000
0000
1001
0000
,
1000
0001
1000
0000
0001
1000
0001
0000
,
0010
0010
0100
0100
1000
1000
0001
0001
,
0010
0001
0010
0000
0001
0010
0001
0000
,
0010
0010
0100
0100
1000
1000
0001
0001
,
0100
0001
0100
0000
0001
0100
0001
0000
,
0100
0100
0010
0010
1000
1000
0001
0001
,
1000
0001
1000
0000
0001
1000
0100
0000
,
0010
0010
0100
0100
1000
1000
0001
0001
,
0010
0000
0001
0000
0010
0000
0000
0000
0001
0000
0000
0001
0010
0000
0000
0000
,
0100
0000
1000
0000
0100
0000
0000
0000
1000
0000
0000
1000
0100
0000
0000
0000
,
1000
0000
0001
0000
0100
0000
0000
0000
0010
0000
0000
0010
0100
0000
0000
0000
,
0100
0000
0010
0000
1000
0000
0000
0000
0001
0000
0000
0001
1000
0000
0000
0000
,
2002
0000
0000
0003
,
0020
0000
0000
3000
,
0200
0000
0000
0330
,
0100
0000
0000
0000
0010
0000
0000
0000
0100
0010
0100
0010
0000
0000
0000
0000
,
0100
0010
0100
0000
0010
0000
1100
0000
,
0010
0100
0010
0000
0010
0000
0101
0000
,
0001
0000
1000
0000
0100
1000
0000
0100
1000
0000
0100
1000
0000
0100
1000
0000
,
0001
0000
1000
0000
0010
1000
0000
0010
1000
0000
0010
1000
0000
0010
1000
0000
,
0010
0100
0001
0000
0100
0000
0101
0000
,
0100
0010
1000
0000
0010
0000
1010
0000
,
1000
0000
0001
0000
1000
0001
0000
1000
0001
0000
1000
0001
0000
1000
0001
0000
,
0010
0000
0100
0000
0010
0100
0000
0010
0100
0000
0010
0100
0000
0010
0100
0000
,
0010
0100
1000
0000
0100
0100
0100
0000
,
1000
0010
0100
0000
0001
0001
0001
0000
,
0100
0010
1000
0100
0010
0001
1000
0000
,
0001
0010
0100
1000
0001
0100
0010
0000
,
0100
0100
0010
0000
1000
0001
1000
0000
,
0100
0100
0010
0000
0001
1000
0001
0000
,
1000
0100
0010
0100
1000
0001
0010
0000
,
0001
0010
0100
0010
0001
1000
0010
0000
,
0100
0100
0010
0010
1000
0001
1000
0001
,
1000
1000
0100
0100
0010
0100
0010
0100
,
1000
1000
0001
0001
0010
0100
0010
0001
,
0100
0100
0010
0010
1000
1000
0001
0001
,
1001
0000
0000
0000
;
