#TITLE:Soft Paws;
#SUBTITLE:;
#ARTIST:Ryu☆;
#TITLETRANSLIT:;
#SUBTITLETRANSLIT:;
#ARTISTTRANSLIT:;
#GENRE:;
#CREDIT:Chewi☆;
#MENUCOLOR:#00FFFF;
#METERTYPE:DDR X;
#BANNER:Soft Paws.PNG;
#BACKGROUND:Soft Paws-bg.PNG;
#LYRICSPATH:;
#CDTITLE:;
#MUSIC:Soft Paws.MP3;
#OFFSET:-8.531;
#SAMPLESTART:31.031;
#SAMPLELENGTH:15.000;
#SELECTABLE:YES;
#LISTSORT:;
#BPMS:0.000=128.020;
#STOPS:;
#BGCHANGES:;
#ATTACKS:;

//---------------dance-single - Chewi----------------
#NOTES:
     dance-single:
     Chewi:
     Hard:
     11:
     0.446,0.435,0.188,0.260,0.098: // measure 1
2100
0000
0001
0000
3010
1000
0100
1000
,  // measure 2
0012
0000
1000
0000
0103
0001
0010
0001
,  // measure 3
2100
0010
3002
0100
,  // measure 4
1003
0100
0001
0010
,  // measure 5
1000
0100
1000
0000
0100
0001
0100
0001
,  // measure 6
0001
0010
0001
0000
0010
1000
0010
1000
,  // measure 7
1000
0100
0010
0000
0100
0010
1000
0010
,  // measure 8
0001
0010
0100
0000
1000
0100
0001
0100
,  // measure 9
1000
0000
0101
0000
0010
1000
0100
0000
,  // measure 10
0001
0000
0011
0000
1000
0100
0001
0000
,  // measure 11
1010
0001
0100
1000
,  // measure 12
1010
1000
0100
0001
,  // measure 13
1000
0000
0100
0000
0010
0000
0001
0000
0010
0000
0000
0010
0000
0000
0010
0000
,  // measure 14
0100
0000
1000
0100
0000
0001
0200
0000
0000
0000
0010
0000
0310
0000
0000
0000
,  // measure 15
0001
0000
0100
0000
0010
0000
1000
0000
0010
0000
0000
0010
0000
0000
0010
0000
,  // measure 16
1000
0000
0010
0001
0000
0010
2000
0000
0000
0000
0001
0000
3001
0000
0001
0000
,  // measure 17
0010
0000
0100
0000
1000
0000
0100
0000
0010
0000
0000
0010
0000
0000
0010
0000
,  // measure 18
0001
0000
0010
1000
0000
0010
0002
0000
0000
0000
0100
0000
0103
0000
0000
0000
,  // measure 19
0010
0000
1000
0000
0010
0000
0100
0000
0001
0000
0000
0001
0000
0000
0001
0000
,  // measure 20
0001
0000
0010
0000
0100
0010
0001
0000
0010
0000
0010
0000
0010
0000
0000
0000
,  // measure 21
2100
0001
0010
0010
,  // measure 22
3020
0000
1000
1000
,  // measure 23
2030
0100
0001
0001
,  // measure 24
3002
0010
0100
0100
,  // measure 25
0023
1000
0100
0100
,  // measure 26
2030
0001
0100
0001
,  // measure 27
3002
0000
0000
0000
0010
0000
0000
0000
0100
0000
0000
0000
0100
0003
0000
0000
,  // measure 28
0010
1000
0010
1001
,  // measure 29
0120
0001
0100
1000
,  // measure 30
0230
1000
0001
0010
,  // measure 31
2300
0010
0001
0100
,  // measure 32
3002
0100
1000
0103
,  // measure 33
0100
0010
1000
0000
1001
0000
0000
0000
,  // measure 34
0100
0010
0001
0000
1001
0000
0000
0000
,  // measure 35
1000
0100
0001
0000
1100
0000
0000
0000
,  // measure 36
0001
0010
1000
0000
0011
0000
0110
0000
,  // measure 37
2002
0000
0000
0000
3003
0001
1000
0001
,  // measure 38
1000
0000
0100
0000
0010
0000
0001
0000
0010
0000
0000
0010
0000
0000
0010
0000
,  // measure 39
0100
0000
1000
0100
0000
0001
0200
0000
0000
0000
0010
0000
0310
0000
0000
0000
,  // measure 40
0001
0000
0100
0000
0010
0000
1000
0000
0010
0000
0000
0010
0000
0000
0010
0000
,  // measure 41
1000
0000
0010
0001
0000
0010
2000
0000
0000
0000
0001
0000
3001
0000
0001
0000
,  // measure 42
0010
0000
0100
0000
1000
0000
0100
0000
0010
0000
0000
0010
0000
0000
0010
0000
,  // measure 43
0001
0000
0010
1000
0000
0010
0002
0000
0000
0000
0100
0000
0103
0000
0000
0000
,  // measure 44
0010
0000
1000
0000
0010
0000
0100
0000
0001
0000
0000
0001
0000
0000
0001
0000
,  // measure 45
0001
0000
0010
0000
0100
0010
0001
0000
0010
0000
0010
0000
0010
0000
0000
0000
,  // measure 46
2100
0000
0001
0000
3010
1000
0100
1000
,  // measure 47
0012
0000
1000
0000
0103
0001
0010
0001
,  // measure 48
2100
0010
3002
0100
,  // measure 49
1003
0100
0001
0010
,  // measure 50
1000
0100
1000
0000
0100
0001
0100
0001
,  // measure 51
0001
0010
0001
0000
0010
1000
0010
1000
,  // measure 52
1000
0100
0010
0000
0101
0010
1000
0010
,  // measure 53
0001
0010
0100
1000
0010
0100
0100
0000
,  // measure 54
2002
0000
0000
0000
,  // measure 55
3003
0000
0000
0000
;

//---------------dance-single - Chewi----------------
#NOTES:
     dance-single:
     Chewi:
     Medium:
     8:
     0.361,0.387,0.098,0.278,0.000: // measure 1
2000
0010
0100
0010
,  // measure 2
3002
0010
0100
0010
,  // measure 3
2003
0010
3200
0010
,  // measure 4
2300
0010
3200
0310
,  // measure 5
1002
0010
0100
0013
,  // measure 6
2000
0010
0100
0010
,  // measure 7
3001
0001
1000
1000
,  // measure 8
0002
0000
2003
0000
,  // measure 9
3002
0010
0203
0010
,  // measure 10
0302
0010
0203
0310
,  // measure 11
2002
0000
0000
3003
,  // measure 12
0220
0000
0000
0330
,  // measure 13
0010
0000
0100
1000
0100
0000
0010
0000
,  // measure 14
0100
0000
0010
0001
0010
0000
0000
0000
,  // measure 15
0010
0000
0100
1000
0100
0000
0010
0000
,  // measure 16
0100
0000
0010
0001
0010
0000
1000
0000
,  // measure 17
0100
0001
0010
0100
,  // measure 18
0010
0100
0010
0100
0010
0000
0100
0000
,  // measure 19
0100
0010
0001
0100
,  // measure 20
0010
0000
0100
0000
0010
0100
0010
0100
,  // measure 21
1010
0000
0101
0000
1000
0001
1000
0001
,  // measure 22
1100
0000
0001
0000
0001
0100
0100
0000
,  // measure 23
0010
1000
0100
0010
,  // measure 24
0001
0000
0010
0000
0100
1000
0010
0100
,  // measure 25
0001
0100
0010
1000
,  // measure 26
0001
0010
0100
1000
,  // measure 27
0001
0010
0100
1000
,  // measure 28
0001
0100
0010
1000
0001
0010
0100
0000
,  // measure 29
0020
0000
0100
0130
,  // measure 30
0001
0000
1000
0000
0001
0010
0100
1000
,  // measure 31
0001
0011
1000
1010
,  // measure 32
0100
0000
0100
0000
0001
0100
1000
0000
,  // measure 33
0020
0100
0130
0001
,  // measure 34
1000
0000
1000
0100
0010
0001
1000
0000
,  // measure 35
0100
0010
0100
0001
,  // measure 36
0100
0010
0100
1000
,  // measure 37
0100
0001
0010
1000
,  // measure 38
2000
0100
3010
0100
,  // measure 39
2000
0000
0100
0000
3010
0100
0010
0100
,  // measure 40
0002
0100
0013
0100
,  // measure 41
2000
0100
0010
3100
,  // measure 42
0001
0100
0001
0000
0010
0100
0010
0000
,  // measure 43
0100
0010
0100
0000
0010
1000
0010
0000
,  // measure 44
2000
0100
3002
0103
,  // measure 45
0010
0100
0010
0100
0010
0010
0010
0000
,  // measure 46
1010
0000
0101
0000
0100
0010
0100
0010
,  // measure 47
1000
0100
0001
0010
,  // measure 48
1000
0100
0010
0001
,  // measure 49
1000
0100
0010
0001
0100
0010
0100
0000
,  // measure 50
0010
0100
0010
0000
0110
0000
0000
0000
,  // measure 51
1000
0000
1000
0000
0010
0001
0100
0000
,  // measure 52
1000
0000
0010
0000
0100
0001
0100
0000
,  // measure 53
2000
3200
0302
0023
,  // measure 54
0200
0000
0000
0000
,  // measure 55
0330
0000
0000
0000
;

//---------------dance-single - Chewi----------------
#NOTES:
     dance-single:
     Chewi:
     Easy:
     4:
     0.202,0.218,0.098,0.116,0.000: // measure 1
0100
0000
0000
0000
,  // measure 2
0001
0000
0000
0000
,  // measure 3
1000
0000
0000
0000
,  // measure 4
1001
0000
0000
0000
,  // measure 5
2000
0000
3000
0000
,  // measure 6
0002
0000
0003
0000
,  // measure 7
2000
0000
3000
0000
,  // measure 8
0010
0000
0100
0000
,  // measure 9
0020
0000
0030
0000
,  // measure 10
0200
0000
0300
0000
,  // measure 11
0020
0000
0030
0000
,  // measure 12
0001
0000
1000
0000
,  // measure 13
0100
0010
0010
0100
,  // measure 14
0010
0010
0020
0000
,  // measure 15
1030
0001
1000
1000
,  // measure 16
0001
1000
0001
0000
,  // measure 17
1001
0000
0001
0000
,  // measure 18
1000
0000
0001
0000
,  // measure 19
0110
0000
0100
0000
,  // measure 20
0010
0000
0100
0000
,  // measure 21
1000
0100
0001
0000
,  // measure 22
1000
0100
0001
0000
,  // measure 23
0001
0001
1000
1000
,  // measure 24
1001
0000
1001
0000
,  // measure 25
0001
0100
1000
0000
,  // measure 26
0001
0100
1000
0000
,  // measure 27
1000
1000
0001
0001
,  // measure 28
1001
0000
1001
0000
,  // measure 29
0001
0000
1000
0000
,  // measure 30
0001
0000
1000
0000
,  // measure 31
0001
0000
1000
0000
,  // measure 32
0001
0000
1000
0000
,  // measure 33
0020
0000
0030
0000
,  // measure 34
2000
0000
3000
0000
,  // measure 35
0200
0000
0300
0000
,  // measure 36
0002
0000
0003
0000
,  // measure 37
0000
0000
0000
0001
,  // measure 38
1000
0001
1000
0001
,  // measure 39
1000
0000
1001
0000
,  // measure 40
1000
0001
1000
0001
,  // measure 41
1000
0000
1001
0000
,  // measure 42
1001
1000
1000
1000
,  // measure 43
0001
0001
1000
1000
,  // measure 44
1000
0010
0010
1000
,  // measure 45
1000
1000
0100
0100
,  // measure 46
0001
0001
1000
1000
,  // measure 47
1000
0001
0001
1000
,  // measure 48
1000
0001
0100
0100
,  // measure 49
0001
0001
0100
0100
,  // measure 50
1000
1000
1000
0001
,  // measure 51
0001
0001
0001
0001
,  // measure 52
1000
1000
1000
1000
,  // measure 53
0100
0010
0100
0010
,  // measure 54
0220
0000
0000
0000
,  // measure 55
0330
0000
0000
0000
;

//---------------dance-single - Chewi----------------
#NOTES:
     dance-single:
     Chewi:
     Beginner:
     2:
     0.101,0.119,0.054,0.000,0.000: // measure 1
0100
0000
0000
0000
,  // measure 2
0001
0000
0000
0000
,  // measure 3
1000
0000
0000
0000
,  // measure 4
1001
0000
0000
0000
,  // measure 5
1000
0000
0000
0000
,  // measure 6
0001
0000
0000
0000
,  // measure 7
1000
0000
0000
0000
,  // measure 8
0010
0000
0000
0000
,  // measure 9
0010
0000
0000
0000
,  // measure 10
0100
0000
0000
0000
,  // measure 11
0010
0000
0000
0000
,  // measure 12
0001
0000
0000
0000
,  // measure 13
0100
0000
0000
0000
,  // measure 14
0100
0000
0000
0000
,  // measure 15
1000
0000
0000
0000
,  // measure 16
0001
0000
0000
0000
,  // measure 17
1001
0000
0000
0000
,  // measure 18
1000
0000
0000
0000
,  // measure 19
0110
0000
0000
0000
,  // measure 20
0010
0000
0000
0000
,  // measure 21
1000
0000
0001
0000
,  // measure 22
1000
0000
0001
0000
,  // measure 23
0001
0000
1000
0000
,  // measure 24
1001
0000
0000
0000
,  // measure 25
0001
0000
1000
0000
,  // measure 26
0001
0000
1000
0000
,  // measure 27
1000
0000
0001
0000
,  // measure 28
1001
0000
0000
0000
,  // measure 29
0001
0000
0000
0000
,  // measure 30
0001
0000
0000
0000
,  // measure 31
0001
0000
0000
0000
,  // measure 32
0001
0000
0000
0000
,  // measure 33
0010
0000
0000
0000
,  // measure 34
1000
0000
0000
0000
,  // measure 35
0100
0000
0000
0000
,  // measure 36
0001
0000
0000
0000
,  // measure 37
0000
0000
0000
0000
,  // measure 38
1000
0000
0000
0000
,  // measure 39
1000
0000
0000
0000
,  // measure 40
1000
0000
0000
0000
,  // measure 41
1000
0000
0000
0000
,  // measure 42
1001
0000
1000
0000
,  // measure 43
0001
0000
1000
0000
,  // measure 44
1000
0000
0010
0000
,  // measure 45
1000
0000
0100
0000
,  // measure 46
0001
0000
0100
0000
,  // measure 47
1000
0000
0001
0000
,  // measure 48
1000
0000
0100
0000
,  // measure 49
0001
0000
0100
0000
,  // measure 50
1000
0000
1000
0000
,  // measure 51
0001
0000
0000
0001
,  // measure 52
1000
0000
0000
0100
,  // measure 53
0100
0100
0100
0100
,  // measure 54
0100
0000
0000
0000
;
