#TITLE:So Real;
#SUBTITLE:;
#ARTIST:Y&Co. feat. mioco;
#TITLETRANSLIT:;
#SUBTITLETRANSLIT:;
#ARTISTTRANSLIT:;
#CREDIT:Chewi☆;
#BANNER:So Real.png;
#BACKGROUND:So Real-bg.png;
#LYRICSPATH:;
#CDTITLE:;
#MUSIC:So Real.mp3;
#OFFSET:-0.444;
#SAMPLESTART:60.440;
#SAMPLELENGTH:15.000;
#SELECTABLE:YES;
#DISPLAYBPM:128.000;
#BPMS:0.000=128.000;
#STOPS:;
#BGCHANGES:;

//---------------dance-single - Chewi----------------
#NOTES:
     dance-single:
     Chewi:
     Hard:
     9:
     0.371,0.432,0.221,0.279,0.037: // measure 1
0000
0000
0000
0000
,  // measure 2
0000
0000
0000
0000
,  // measure 3
0000
0000
0000
0000
,  // measure 4
0000
0000
0000
0000
,  // measure 5
0000
0000
0010
0000
0000
0010
0000
0000
0010
0000
0000
0010
0000
0000
0010
0000
,  // measure 6
0000
0000
0100
0000
0000
0100
0000
0000
0100
0000
0000
0100
0000
0000
0100
0000
,  // measure 7
0000
0000
0001
0000
0000
0001
0000
0000
0001
0000
0000
0001
0000
0000
0001
0000
,  // measure 8
0000
0000
1000
0000
0000
1000
0000
0000
1000
0000
0000
1000
0000
0000
1000
0000
,  // measure 9
0001
1000
0010
0100
,  // measure 10
0001
1000
0100
0010
,  // measure 11
0001
0010
0001
0000
1000
0010
1000
0000
,  // measure 12
0001
0100
0001
0000
1000
0100
1000
0000
,  // measure 13
0001
0100
0010
1000
,  // measure 14
0001
0010
0100
1000
,  // measure 15
1000
0100
1000
0000
0001
0100
0001
0000
,  // measure 16
1000
0010
1000
0000
0001
0010
0001
0000
,  // measure 17
1002
0100
0010
1003
,  // measure 18
1000
0100
0010
0001
,  // measure 19
2001
0010
0001
3100
,  // measure 20
0001
0100
0010
1000
,  // measure 21
1020
0100
1000
0130
,  // measure 22
1000
0100
0010
0001
,  // measure 23
0021
0001
0100
0031
,  // measure 24
0001
1000
0010
0100
,  // measure 25
0102
0100
0000
0100
,  // measure 26
0000
1000
0000
1003
,  // measure 27
2010
0010
0000
0001
,  // measure 28
0000
0100
0000
3010
,  // measure 29
1000
0010
1000
0000
1000
0001
1000
0000
,  // measure 30
1000
0100
1000
0000
1000
0001
1000
0000
,  // measure 31
0001
0100
0001
0000
0001
0010
0001
0000
,  // measure 32
0001
1000
0001
0000
0001
0100
0001
0000
,  // measure 33
2000
3020
0230
0302
,  // measure 34
1003
1100
0001
0101
,  // measure 35
0200
0000
0000
0000
0320
0000
0000
2000
0030
0000
0000
3000
0002
0000
0000
0000
,  // measure 36
1003
1100
0001
0101
,  // measure 37
2000
3020
0230
0302
,  // measure 38
1003
1010
0001
0011
,  // measure 39
0002
0023
0230
2300
,  // measure 40
3001
1001
1000
1001
,  // measure 41
1000
0100
1000
0000
0100
0001
0100
0000
,  // measure 42
0001
0010
0001
0000
0010
1000
0010
0000
,  // measure 43
2000
0000
3001
0000
0001
1000
0010
0000
,  // measure 44
2000
0000
3001
0000
0001
0010
0100
0000
,  // measure 45
1000
0100
0010
0001
,  // measure 46
1000
0010
0100
0001
,  // measure 47
0100
0100
0100
0000
0010
0000
1001
0000
,  // measure 48
0010
0010
0010
0000
0100
0000
1001
0000
,  // measure 49
1000
0100
1000
0000
0001
0000
0000
0000
,  // measure 50
0001
0100
0001
0000
1000
0000
0000
0000
,  // measure 51
0010
0100
0001
0000
0010
0000
0000
0000
,  // measure 52
0010
0100
1000
0000
0010
0000
0000
0000
,  // measure 53
2001
3100
1002
0013
,  // measure 54
1020
0130
0201
0310
,  // measure 55
0001
0001
0001
0000
1000
1000
1000
0000
,  // measure 56
0100
0010
0100
0010
0001
0010
0001
0000
,  // measure 57
2100
3010
0102
0013
,  // measure 58
2100
3001
0102
1003
,  // measure 59
0010
0010
0010
0000
0100
0100
0100
0000
,  // measure 60
0010
0100
1001
0000
0010
0100
1001
0000
,  // measure 61
2200
0000
0000
0000
,  // measure 62
0000
0000
0000
0000
,  // measure 63
3300
0000
0000
0000
;

//---------------dance-single - Chewi----------------
#NOTES:
     dance-single:
     Chewi:
     Medium:
     5:
     0.259,0.305,0.066,0.221,0.000: // measure 1
0000
0000
0000
0000
,  // measure 2
0000
0000
0000
0000
,  // measure 3
0000
0000
0000
0000
,  // measure 4
0000
0000
0000
0000
,  // measure 5
0010
1000
0100
0001
,  // measure 6
0010
0010
0010
0010
,  // measure 7
0010
0001
0100
1000
,  // measure 8
0010
0010
0010
0010
,  // measure 9
2001
0000
0001
0000
,  // measure 10
3001
1000
0010
0100
,  // measure 11
0120
0000
0100
0000
,  // measure 12
0130
0010
1000
0100
,  // measure 13
2100
0000
0100
0000
,  // measure 14
3001
0100
0010
0100
,  // measure 15
0102
0000
0100
0000
,  // measure 16
1003
0100
0010
0001
,  // measure 17
1000
0000
1000
0000
1000
0000
1000
0001
,  // measure 18
1000
0000
1000
0000
1000
0000
1000
0010
,  // measure 19
0100
0000
0100
0000
0100
0000
0100
0001
,  // measure 20
0010
0000
0010
0000
0010
0000
0010
0100
,  // measure 21
0010
0000
0010
0000
0010
0000
0010
0001
,  // measure 22
0100
0000
0100
0000
0100
0000
0100
0010
,  // measure 23
1000
0000
1000
0000
1000
0000
1000
0001
,  // measure 24
2000
0010
0001
3100
,  // measure 25
2002
0000
0000
3000
,  // measure 26
0200
0000
0000
0003
,  // measure 27
0020
0000
0000
0300
,  // measure 28
2000
0000
0000
0030
,  // measure 29
0200
0000
0000
3000
,  // measure 30
0002
0000
0000
0300
,  // measure 31
0020
0000
0000
0003
,  // measure 32
2000
0000
0000
3030
,  // measure 33
2000
0001
0100
3001
,  // measure 34
0002
0100
1000
0103
,  // measure 35
0200
0001
1000
0301
,  // measure 36
0020
0001
1000
0031
,  // measure 37
0010
1000
0100
0001
,  // measure 38
0010
1000
0010
0001
,  // measure 39
0010
0001
0100
1000
,  // measure 40
0010
0001
0010
1000
,  // measure 41
1002
0100
1000
0013
,  // measure 42
2000
0100
0010
3001
,  // measure 43
0020
0001
1000
0031
,  // measure 44
0200
0001
1000
0301
,  // measure 45
0100
0001
0010
1000
,  // measure 46
0100
0001
0100
1000
,  // measure 47
0100
1000
0010
0001
,  // measure 48
0100
0001
0100
1000
,  // measure 49
2002
0000
0000
0000
,  // measure 50
0000
0000
0000
3000
,  // measure 51
0200
0000
0000
0000
,  // measure 52
0000
0000
0000
0303
,  // measure 53
0001
0100
0010
1000
,  // measure 54
0001
0100
0010
1000
,  // measure 55
0001
0100
1000
0100
,  // measure 56
0001
0010
1000
0010
,  // measure 57
1000
0010
0100
0001
,  // measure 58
1000
0010
0100
0001
,  // measure 59
0001
0010
0100
1000
,  // measure 60
0001
0010
0100
1000
,  // measure 61
2002
0000
0000
0000
,  // measure 62
0000
0000
0000
0000
,  // measure 63
3003
0000
0000
0000
;

//---------------dance-single - Chewi----------------
#NOTES:
     dance-single:
     Chewi:
     Easy:
     4:
     0.204,0.254,0.090,0.148,0.000: // measure 1
0000
0000
0000
0000
,  // measure 2
0000
0000
0000
0000
,  // measure 3
0000
0000
0000
0000
,  // measure 4
0000
0000
0000
0000
,  // measure 5
1000
1000
1000
0000
,  // measure 6
0001
0001
0001
0000
,  // measure 7
1000
1000
1000
0000
,  // measure 8
0001
0001
0001
0000
,  // measure 9
1000
0100
0001
0000
,  // measure 10
0001
0000
0001
0000
,  // measure 11
0001
0010
1000
0000
,  // measure 12
1000
0000
1000
0000
,  // measure 13
1000
0100
0010
0000
,  // measure 14
1000
0000
0100
0000
,  // measure 15
0001
0010
0100
0000
,  // measure 16
0001
0000
1000
0000
,  // measure 17
1001
0000
1000
0000
,  // measure 18
0001
1000
0010
0000
,  // measure 19
0110
0000
0100
0000
,  // measure 20
0010
0100
0001
0000
,  // measure 21
1001
0000
1000
0000
,  // measure 22
0001
0010
0100
0000
,  // measure 23
1001
0000
1000
0000
,  // measure 24
0010
0100
0001
0000
,  // measure 25
2000
0000
0000
0000
,  // measure 26
3002
0000
0000
0000
,  // measure 27
0023
0000
0000
0000
,  // measure 28
0230
0000
0000
0000
,  // measure 29
0320
0000
0000
0000
,  // measure 30
0032
0000
0000
0000
,  // measure 31
0203
0000
0000
0000
,  // measure 32
2300
0000
0000
0000
,  // measure 33
3010
0010
0010
0010
,  // measure 34
0010
0010
0010
0010
,  // measure 35
0100
0100
0100
0100
,  // measure 36
0100
0100
0100
0100
,  // measure 37
0001
1000
0001
1000
,  // measure 38
1000
0001
1000
0001
,  // measure 39
0100
0010
0100
0010
,  // measure 40
0010
0100
0010
0100
,  // measure 41
2002
0000
0000
3003
,  // measure 42
1000
1000
1000
0000
,  // measure 43
2002
0000
0000
3003
,  // measure 44
0001
0001
0001
0000
,  // measure 45
1000
0100
0001
0100
,  // measure 46
1000
0010
0001
0010
,  // measure 47
1000
0001
1000
0001
,  // measure 48
0001
1000
0001
1000
,  // measure 49
0020
0000
0000
0000
,  // measure 50
0230
0000
0000
0000
,  // measure 51
0320
0000
0000
0000
,  // measure 52
0230
0000
0000
0000
,  // measure 53
0310
1000
0100
0000
,  // measure 54
0010
0001
0100
0000
,  // measure 55
0010
0100
1001
0000
,  // measure 56
0010
0100
1001
0000
,  // measure 57
0100
1000
0010
0000
,  // measure 58
0100
0001
0010
0000
,  // measure 59
0100
0010
1001
0000
,  // measure 60
0100
0010
1001
0000
,  // measure 61
2002
0000
0000
0000
,  // measure 62
0000
0000
0000
0000
,  // measure 63
3003
0000
0000
0000
;

//---------------dance-single - Chewi----------------
#NOTES:
     dance-single:
     Chewi:
     Beginner:
     2:
     0.082,0.178,0.057,0.098,0.000: // measure 1
0000
0000
0000
0000
,  // measure 2
0000
0000
0000
0000
,  // measure 3
0000
0000
0000
0000
,  // measure 4
0000
0000
0000
0000
,  // measure 5
1000
0000
0000
0000
,  // measure 6
0001
0000
0000
0000
,  // measure 7
1000
0000
0000
0000
,  // measure 8
0001
0000
0000
0000
,  // measure 9
1000
0000
0000
0000
,  // measure 10
0001
0000
0000
0000
,  // measure 11
0001
0000
0000
0000
,  // measure 12
1000
0000
0000
0000
,  // measure 13
1000
0000
0000
0000
,  // measure 14
1000
0000
0000
0000
,  // measure 15
0001
0000
0000
0000
,  // measure 16
0001
0000
0000
0000
,  // measure 17
1001
0000
0000
0000
,  // measure 18
0001
0000
0000
0000
,  // measure 19
0110
0000
0000
0000
,  // measure 20
0010
0000
0000
0000
,  // measure 21
1001
0000
0000
0000
,  // measure 22
0001
0000
0000
0000
,  // measure 23
1001
0000
0000
0000
,  // measure 24
0010
0000
0000
0000
,  // measure 25
2000
0000
0000
0000
,  // measure 26
3000
0000
0000
0000
,  // measure 27
0020
0000
0000
0000
,  // measure 28
0030
0000
0000
0000
,  // measure 29
0200
0000
0000
0000
,  // measure 30
0300
0000
0000
0000
,  // measure 31
0002
0000
0000
0000
,  // measure 32
0003
0000
0000
0000
,  // measure 33
0010
0000
0000
0000
,  // measure 34
0010
0000
0000
0000
,  // measure 35
0100
0000
0000
0000
,  // measure 36
0100
0000
0000
0000
,  // measure 37
0001
0000
0000
0000
,  // measure 38
1000
0000
0000
0000
,  // measure 39
0100
0000
0000
0000
,  // measure 40
0010
0000
0000
0000
,  // measure 41
2002
0000
0000
3003
,  // measure 42
1000
0000
0000
0000
,  // measure 43
2002
0000
0000
3003
,  // measure 44
0001
0000
0000
0000
,  // measure 45
1000
0000
0000
0000
,  // measure 46
1000
0000
0000
0000
,  // measure 47
1000
0000
0000
0000
,  // measure 48
0001
0000
0000
0000
,  // measure 49
0020
0000
0000
0000
,  // measure 50
0030
0000
0000
0000
,  // measure 51
0200
0000
0000
0000
,  // measure 52
0300
0000
0000
0000
,  // measure 53
0010
0000
0000
0000
,  // measure 54
0010
0000
0000
0000
,  // measure 55
0010
0000
0000
0000
,  // measure 56
0010
0000
0000
0000
,  // measure 57
0100
0000
0000
0000
,  // measure 58
0100
0000
0000
0000
,  // measure 59
0100
0000
0000
0000
,  // measure 60
0100
0000
0000
0000
,  // measure 61
2002
0000
0000
0000
,  // measure 62
0000
0000
0000
0000
,  // measure 63
3003
0000
0000
0000
;
