#TITLE:So Excited (feat. Khia);
#SUBTITLE:;
#ARTIST:Janet Jackson;
#TITLETRANSLIT:;
#SUBTITLETRANSLIT:;
#ARTISTTRANSLIT:;
#GENRE:R&B;
#CREDIT:chewi;
#BANNER:So Excited (feat. Khia).png;
#BACKGROUND:So Excited (feat. Khia)-bg.png;
#LYRICSPATH:;
#CDTITLE:cdtitle.png;
#MUSIC:So Excited (feat. Khia).ogg;
#OFFSET:-0.040000;
#SAMPLESTART:7.743000;
#SAMPLELENGTH:15.000000;
#SELECTABLE:YES;
#BPMS:0.000000=107.000000
;
#STOPS:
;
#BGCHANGES:;
#KEYSOUNDS:;
#ATTACKS:;

//---------------dance-single - ----------------
#NOTES:
     dance-single:
     :
     Beginner:
     1:
     0.079187,0.110861,0.020157,0.080626,0.000000,45.000000,2.000000,8.000000,0.000000,0.000000,0.000000,0.079187,0.110861,0.020157,0.080626,0.000000,45.000000,2.000000,8.000000,0.000000,0.000000,0.000000:
0000
0000
0000
0000
,
0000
0000
0000
0000
,
0000
0000
0000
0000
,
0000
0000
0000
0000
,
0002
0000
0000
0003
,
0001
0000
0000
0000
,
2000
0000
0000
3000
,
1000
0000
0000
0000
,
0010
0000
0010
0000
,
0010
0000
0000
0000
,
0100
0000
0100
0000
,
0100
0000
0000
0000
,
2000
0000
0000
3000
,
1000
0000
0000
0000
,
0002
0000
0000
0003
,
0001
0000
0000
0000
,
0020
0000
0000
0030
,
0010
0000
0000
0000
,
0200
0000
0000
0300
,
0100
0000
0000
0000
,
0110
0000
0000
0000
,
0100
0000
0000
0000
,
1001
0000
0000
0000
,
0001
0000
0000
0000
,
0020
0000
0000
0000
,
0000
0000
0000
0030
,
0020
0000
0000
0000
,
0000
0000
0000
0030
,
0010
0000
0000
0000
,
1000
0000
0000
0000
,
0100
0000
0000
0000
,
0001
0000
0000
0000
,
0010
0000
0000
0000
,
1000
0000
0000
0000
,
0100
0000
0000
0000
,
0001
0000
0000
0000
,
0010
0000
0000
0000
,
0010
0000
0010
0000
,
0100
0000
0000
0000
,
0100
0000
0100
0000
,
1000
0000
0000
0000
,
1000
0000
1000
0000
,
0001
0000
0000
0000
,
0001
0000
0001
0000
,
0001
0000
0000
0000
;

//---------------dance-single - ----------------
#NOTES:
     dance-single:
     :
     Easy:
     3:
     0.159813,0.199551,0.020157,0.060470,0.000000,103.000000,2.000000,6.000000,0.000000,0.000000,0.000000,0.159813,0.199551,0.020157,0.060470,0.000000,103.000000,2.000000,6.000000,0.000000,0.000000,0.000000:
0000
0000
0000
0000
,
0000
0000
0000
0000
,
0000
0000
0000
0000
,
0000
0000
0000
0000
,
2000
0000
0000
3000
,
1000
0000
0000
1000
0000
0000
0000
0000
,
0002
0000
0000
0003
,
0001
0000
0000
0001
0000
0000
0000
0000
,
0100
0100
0010
0010
,
0100
0100
0010
0010
,
1000
1000
0001
0001
,
1000
1000
0001
0001
,
1000
0000
0100
0000
,
0010
0010
0001
0000
,
0001
0000
0100
0000
,
0010
0010
1000
0000
,
0010
0000
0100
0000
,
0001
0001
1000
0000
,
0100
0000
0010
0000
,
0100
0010
0100
0000
,
1000
0000
0001
0000
,
1000
0100
0010
0000
,
0001
0000
1000
0000
,
0001
0100
0010
0000
,
0220
0000
0000
0000
,
0000
0000
0000
0330
,
2002
0000
0000
0000
,
0000
0000
0000
3003
,
1000
1000
0001
0001
,
1000
0000
0000
1000
0000
0000
0000
0000
,
0001
0001
1000
1000
,
0001
0000
0000
0001
0000
0000
0000
0000
,
0100
0100
0010
0010
,
0100
0000
0000
0100
0000
0000
0000
0000
,
0100
0100
0010
0010
,
0100
0000
0000
0100
0000
0000
0000
0000
,
0010
0100
0001
0100
,
0001
0000
0000
0001
0000
0000
0000
0000
,
0010
0100
1000
0100
,
1000
0000
0000
1000
0000
0000
0000
0000
,
1000
0001
1000
0001
,
0100
0000
0000
0100
0000
0000
0000
0000
,
0010
0100
0010
0100
,
0001
0000
0000
0001
0000
0000
0000
0000
,
1000
0000
0000
0000
;

//---------------dance-single - ----------------
#NOTES:
     dance-single:
     :
     Medium:
     6:
     0.293711,0.376929,0.090705,0.423289,0.000000,153.000000,9.000000,42.000000,0.000000,0.000000,0.000000,0.293711,0.376929,0.090705,0.423289,0.000000,153.000000,9.000000,42.000000,0.000000,0.000000,0.000000:
// measure 0
0000
0000
0000
0000
,  // measure 1
0000
0000
0000
0000
,  // measure 2
0000
0000
0000
0000
,  // measure 3
0000
0000
0000
0000
,  // measure 4
1000
0100
0001
1000
,  // measure 5
0010
0000
0000
0001
0000
0000
1000
0000
,  // measure 6
0001
0100
1000
0001
,  // measure 7
0010
0000
0000
1000
0000
0000
0001
0000
,  // measure 8
1000
0100
0001
0010
,  // measure 9
1000
0100
0001
0010
,  // measure 10
1000
0010
0001
0100
,  // measure 11
1000
0010
0001
0100
,  // measure 12
1000
0000
0010
0000
0100
0100
0100
0000
,  // measure 13
0100
0010
0110
0000
,  // measure 14
0010
0000
0100
0000
0001
0001
0001
0000
,  // measure 15
1000
0001
1001
0000
,  // measure 16
1000
0100
0010
0100
,  // measure 17
1000
0000
0001
1000
0001
0000
0000
0000
,  // measure 18
0001
0010
0100
0010
,  // measure 19
0001
0000
1000
0001
1000
0000
0000
0000
,  // measure 20
0102
0000
0010
0000
,  // measure 21
1000
0000
0000
1003
0000
0000
1000
0000
,  // measure 22
2010
0000
0001
0000
,  // measure 23
0100
0000
0000
3100
0000
0000
0100
0000
,  // measure 24
0010
0100
0010
0100
,  // measure 25
1000
0001
1000
1001
,  // measure 26
0001
1000
0001
1000
,  // measure 27
0001
0100
0001
0101
,  // measure 28
0200
0320
2030
3002
,  // measure 29
2003
0000
0000
3001
0000
1000
0001
0000
,  // measure 30
0020
0230
2300
3002
,  // measure 31
0023
0000
0000
0031
0000
0010
0001
0000
,  // measure 32
2000
3200
2300
3002
,  // measure 33
0203
0000
0000
0310
0000
0100
0010
0000
,  // measure 34
0200
0320
2030
3020
,  // measure 35
0230
0000
0000
0301
0000
1000
0001
0000
,  // measure 36
1002
0023
0230
2300
,  // measure 37
3002
0000
0000
1003
0000
0001
1000
0000
,  // measure 38
2000
3020
0230
0302
,  // measure 39
0203
0000
0000
0301
0000
0100
0001
0000
,  // measure 40
2001
3200
0320
0230
,  // measure 41
2300
0000
0000
3001
0000
1000
0001
0000
,  // measure 42
0120
0230
2300
3002
,  // measure 43
0203
0000
0000
0301
0000
0100
0001
0000
,  // measure 44
1000
0000
0000
0000
;

//---------------dance-single - ----------------
#NOTES:
     dance-single:
     :
     Hard:
     8:
     0.403132,0.421273,0.352741,0.191488,0.000000,226.000000,35.000000,19.000000,0.000000,0.000000,0.000000,0.403132,0.421273,0.352741,0.191488,0.000000,226.000000,35.000000,19.000000,0.000000,0.000000,0.000000:
// measure 0
0000
0000
0000
0000
,  // measure 1
0000
0000
0000
0000
,  // measure 2
0000
0000
0000
0000
,  // measure 3
0000
0000
0000
0000
,  // measure 4
1002
0100
0010
1003
,  // measure 5
1000
0100
0010
0100
0000
1000
1000
0000
,  // measure 6
1002
0100
0010
1003
,  // measure 7
1000
0010
0100
0001
0000
0001
0001
0000
,  // measure 8
1001
0000
1000
0100
0010
0000
0001
0000
,  // measure 9
0100
0001
0010
0100
0000
1000
0100
0000
,  // measure 10
1001
0000
0100
0000
0010
1000
0001
0000
,  // measure 11
0100
0001
1000
0001
0000
1000
0001
0000
,  // measure 12
1000
0100
1000
0000
0001
0100
0001
0000
,  // measure 13
1000
0010
0100
0001
0000
0100
0101
0000
,  // measure 14
0001
0010
0100
0000
1000
0100
0010
0000
,  // measure 15
0100
0010
0100
1000
0000
0001
1001
0000
,  // measure 16
1000
0001
0100
0000
0010
1000
0001
0000
,  // measure 17
1000
0010
0100
0001
0000
0100
0101
0000
,  // measure 18
0001
1000
0100
0000
1000
0001
0100
0000
,  // measure 19
0001
1000
0100
0010
0000
0100
0110
0000
,  // measure 20
0012
0103
2010
3100
,  // measure 21
1000
0001
0100
0010
0000
0100
0110
0000
,  // measure 22
2010
3001
0012
1003
,  // measure 23
1000
0001
1000
0100
0000
1000
1001
0000
,  // measure 24
1001
1001
0100
0100
,  // measure 25
0110
0000
0110
0000
0010
0100
0010
0000
,  // measure 26
1010
1010
0001
0001
,  // measure 27
1001
0000
1001
0000
1000
0100
0010
0001
,  // measure 28
0021
0001
0100
0031
,  // measure 29
0001
0010
0100
1000
0000
1000
1100
0000
,  // measure 30
1002
2003
3020
0230
,  // measure 31
0301
0100
0010
1000
0000
1000
1010
0000
,  // measure 32
0120
2030
3002
2003
,  // measure 33
3100
0010
0100
1000
0000
0100
1100
0000
,  // measure 34
1002
0203
0320
0230
,  // measure 35
0301
0100
0010
1000
0000
0010
1010
0000
,  // measure 36
1000
0001
1000
0100
0010
0001
1000
0100
,  // measure 37
1000
0001
0100
0010
0000
0100
0110
0000
,  // measure 38
0010
0100
0001
1000
0100
0010
0001
1000
,  // measure 39
0100
0001
0100
1000
0000
0100
1100
0000
,  // measure 40
0001
0010
0100
1000
0001
0100
0010
1000
,  // measure 41
0001
0100
1000
0100
0000
1000
1100
0000
,  // measure 42
1000
0100
0001
1000
0100
0001
0100
0010
,  // measure 43
0001
1000
0100
1000
0000
0001
1001
0000
,  // measure 44
0110
0000
0000
0000
;
