#TITLE:Smile;
#SUBTITLE:;
#ARTIST:Katy Perry;
#TITLETRANSLIT:;
#SUBTITLETRANSLIT:;
#ARTISTTRANSLIT:;
#GENRE:Pop;
#CREDIT:chewi;
#BANNER:Smile.png;
#BACKGROUND:Smile-bg.png;
#LYRICSPATH:;
#CDTITLE:cdtitle.png;
#MUSIC:Smile.ogg;
#OFFSET:-0.180000;
#SAMPLESTART:61.404491;
#SAMPLELENGTH:12.000000;
#SELECTABLE:YES;
#BPMS:0.000000=98.000000
;
#STOPS:
;
#BGCHANGES:-0.360=Smile.avi=1.000=1=0=1===CrossFade==,
140.000=Smile-bg.png=1.000=1=0=1===CrossFade==,
99999=-nosongbg-=1.000=0=0=0 // don't automatically add -songbackground-
;
#KEYSOUNDS:;
#ATTACKS:;

//---------------dance-double - chewi----------------
#NOTES:
     dance-double:
     chewi:
     Hard:
     8:
     0.364259,0.332211,0.253828,0.184602,0.000000,221.000000,199.000000,22.000000,16.000000,0.000000,0.000000,0.364259,0.332211,0.253828,0.184602,0.000000,221.000000,199.000000,22.000000,16.000000,0.000000,0.000000:
00000000
00000000
00000000
00000000
,
00000000
00000000
00000000
00000000
00000000
00000000
00100000
01000000
,
01020000
00000000
00130000
00000000
00010000
00100000
00001000
00100000
,
02100000
00000000
03100000
00000000
00001000
00010000
00000010
00001000
,
00002010
00000000
00003100
00000000
00001000
00000100
00000010
00000100
,
00002100
00000000
00003010
00000100
00000010
00000010
00000010
00000000
,
00002010
00000000
00003100
00000000
00001000
00000100
00010000
00000100
,
00000120
00000000
00000130
00000000
00010000
00001000
01000000
00010000
,
01020000
00000000
00130000
00000000
00010000
00100000
01000000
00100000
,
00120000
00000000
01030000
00100000
00100000
00100000
01000000
00000000
,
00010000
00100000
00001000
00010000
00000100
00000000
00000110
00000000
,
00000010
00000100
00001000
00000010
00001000
00000000
00001010
00000000
,
00001000
00010000
00100000
01000000
00100000
00010000
00001000
00000100
,
00000010
00000010
00000010
00000000
00010000
00001000
00011000
00000000
,
00001000
00000100
00010000
00001000
00100000
00000000
01100000
00000000
,
01000000
00100000
00010000
01000000
00010000
00000000
01010000
00000000
,
00010000
00001000
00000010
00000100
00000010
00001000
00000100
00000000
,
00100000
00100000
00100000
00000000
00001000
00010000
01000000
01000000
,
01020000
00000000
00130000
00000000
00010000
00100000
00001000
00100000
,
02100000
00000000
03100000
00000000
00001000
00010000
00000010
00001000
,
00002010
00000000
00003100
00000000
00001000
00000100
00000010
00000100
,
00002100
00000000
00003010
00000100
00000100
00000100
00000010
00000000
,
00002010
00000000
00003100
00000000
00001000
00000100
00010000
00000100
,
00000120
00000000
00000130
00000000
00010000
00001000
01000000
00010000
,
01020000
00000000
00130000
00000000
00010000
00100000
01000000
00100000
,
00120000
00000000
01030000
00100000
00100000
00100000
01000000
00000000
,
00010000
01000000
00010000
00000000
00100000
00001000
00100000
00000000
,
00001000
00010000
00000100
00000000
00000100
00000100
00000110
00000000
,
00000010
00000100
00010000
00000000
00001000
00010000
00100000
00000000
,
01000000
00010000
00100000
00000000
01000000
00100000
00010000
00001000
,
00000100
00000100
00000010
00000000
00000100
00000100
00001000
00000000
,
00000010
00000000
00000100
00000000
00000010
00001000
00000100
00010000
,
00001000
00001000
00100000
00000000
01000000
01000000
00100000
00000000
,
00010000
00000000
00001000
00000000
00000100
00000100
00000100
00000100
;

//---------------dance-single - ----------------
#NOTES:
     dance-single:
     :
     Hard:
     8:
     0.393927,0.390837,0.392279,0.000000,0.000000,239.000000,205.000000,34.000000,0.000000,0.000000,0.000000,0.393927,0.390837,0.392279,0.000000,0.000000,239.000000,205.000000,34.000000,0.000000,0.000000,0.000000:
0000
0000
0000
0000
,
0000
0000
0000
0000
0000
0000
1000
0100
,
0110
0000
0011
0000
0010
0100
1000
0010
,
0110
0000
0101
0000
0100
0010
1000
0001
,
1001
0000
0011
0000
0010
0100
1000
0001
,
0010
1000
0010
0001
0011
0011
0001
0010
,
0110
0000
1100
0000
0100
0010
0001
0100
,
0110
0000
1010
0000
0010
0100
0001
1000
,
1001
0000
1100
0000
0100
0010
0001
1000
,
0100
0001
0100
1000
1100
1100
1000
0000
,
1000
0010
0001
0000
1000
0000
0001
0000
,
0001
0010
1000
0000
0001
0000
1000
0000
,
0001
0100
0010
0000
0001
0100
0010
0000
,
0001
0100
0010
1000
0001
0001
1000
1000
,
0001
0100
1000
0000
0001
0000
1000
0000
,
1000
0100
0001
0000
1000
0000
0001
0000
,
1000
0010
0100
0000
1000
0010
0100
0000
,
1000
0010
0100
0001
1000
1000
0010
1000
,
1001
0000
0101
0000
0001
1000
0010
0001
,
1001
0000
1100
0000
1000
0001
0010
0100
,
0110
0000
1100
0000
0001
1000
0010
0100
,
0001
0010
0001
0100
0101
0101
0010
1000
,
1001
0000
0101
0000
0001
1000
0010
0001
,
1001
0000
1100
0000
1000
0001
0010
0100
,
0110
0000
1100
0000
0001
1000
0010
0100
,
0001
0010
0001
0100
0101
0101
0100
0000
,
0100
0010
1000
0001
0010
0100
1000
0000
,
0001
0010
0100
1000
0010
0100
0001
0000
,
0100
0010
1000
0001
0010
0100
1000
0000
,
0001
0010
0100
1000
0010
0100
0001
0000
,
0110
0000
1000
0000
0001
1000
0100
0000
,
1000
0001
0100
0010
1000
0001
0010
0000
,
0110
0000
0100
0000
0010
0100
1000
0000
,
0010
0100
1000
0100
0001
0100
1000
0100
;

//---------------dance-single - ----------------
#NOTES:
     dance-single:
     :
     Medium:
     6:
     0.263717,0.253107,0.023075,0.092301,0.092301,160.000000,158.000000,2.000000,8.000000,0.000000,0.000000,0.263717,0.253107,0.023075,0.092301,0.092301,160.000000,158.000000,2.000000,8.000000,0.000000,0.000000:
0000
0000
0000
0000
,
0000
0000
0000
0000
,
1000
0000
0000
1000
0000
0000
1000
0000
0000
0000
0000
0000
0000
0000
0000
0000
,
0001
0000
1000
0001
0000
0000
0001
0000
0000
0000
0000
0000
0000
0000
0000
0000
,
0100
0000
0000
0100
0000
0000
0100
0000
0000
0000
0000
0000
0000
0000
0000
0000
,
0010
0000
0100
0010
0000
0000
0010
0000
1000
0000
0001
0000
1000
0000
0000
0000
,
0001
0000
0000
0001
0000
0000
0001
0000
0000
0000
0000
0000
0000
0000
0000
0000
,
1000
0000
0001
1000
0000
0000
1000
0000
0000
0000
0000
0000
0000
0000
0000
0000
,
0010
0000
0000
0010
0000
0000
0010
0000
0000
0000
0000
0000
0000
0000
0000
0000
,
0100
0000
0001
0100
0000
0000
0100
0000
0001
0000
1000
0000
0001
0000
0000
0000
,
1000
0100
0001
0100
,
1000
0001
1000
0000
0001
1000
0001
0000
,
1000
0010
0001
0010
,
0100
0010
0100
0000
0010
0100
0010
0000
,
0001
0010
1000
0010
,
0001
1000
0001
0000
1000
0001
1000
0000
,
0001
0100
1000
0100
,
0010
0100
0010
0000
0100
0010
0100
0000
,
0001
0000
0000
0001
0000
0000
0001
0000
0100
0000
0000
0000
0010
0000
0000
0000
,
1000
0000
0001
1000
0000
0000
1000
0000
0001
0000
0000
0000
0010
0000
0000
0000
,
0010
0000
0000
0010
0000
0000
0010
0000
0100
0000
0000
0000
0010
0000
0000
0000
,
0100
0000
0010
0100
0000
0000
0100
0000
1000
0000
0001
0000
1000
0000
0000
0000
,
1000
0000
0000
1000
0000
0000
1000
0000
0010
0000
0000
0000
0100
0000
0000
0000
,
0001
0000
1000
0001
0000
0000
0001
0000
1000
0000
0000
0000
0100
0000
0000
0000
,
0100
0000
0000
0100
0000
0000
0100
0000
0010
0000
0000
0000
0100
0000
0000
0000
,
0010
0000
0100
0010
0000
0000
0010
0000
0001
0000
1000
0000
0001
0000
0000
0000
,
0200
0310
0020
0130
,
0010
0100
0001
0000
0010
0100
1000
0000
,
2000
3001
0002
1003
,
0001
1000
0100
0000
1000
0000
1100
0000
,
0020
0130
0200
0310
,
0100
0010
1000
0000
0100
0010
0001
0000
,
0002
1003
2000
3001
,
1000
0001
0010
0000
0001
0000
0011
0000
;

//---------------dance-single - ----------------
#NOTES:
     dance-single:
     :
     Easy:
     4:
     0.164823,0.175228,0.000000,0.046150,0.000000,100.000000,100.000000,0.000000,4.000000,0.000000,0.000000,0.164823,0.175228,0.000000,0.046150,0.000000,100.000000,100.000000,0.000000,4.000000,0.000000,0.000000:
0000
0000
0000
0000
,
0000
0000
0000
0000
,
0010
1000
0100
0000
,
0010
0001
0100
0000
,
0010
1000
0100
0010
,
0001
0100
0010
1000
,
0100
1000
0010
0000
,
0100
0001
0010
0000
,
0100
1000
0010
0100
,
0001
0010
0100
1000
,
0002
0000
0003
0000
,
0001
0100
0001
0000
,
0200
0000
0300
0000
,
0100
0001
0100
0000
,
2000
0000
3000
0000
,
1000
0010
1000
0000
,
0020
0000
0030
0000
,
0010
1000
0010
0000
,
0010
1000
0100
0000
,
0010
0001
0100
0000
,
0010
1000
0100
0010
,
0001
0100
0010
1000
,
0100
1000
0010
0000
,
0100
0001
0010
0000
,
0100
1000
0010
0100
,
0001
0010
0100
1000
,
1000
0010
0001
0000
,
0001
0010
1000
0000
,
1000
0010
0001
0010
,
1000
0010
0001
0010
,
1000
0100
0001
0000
,
0001
0100
1000
0000
,
1000
0100
0001
0100
,
1000
0100
0001
0100
;

//---------------dance-single - ----------------
#NOTES:
     dance-single:
     :
     Beginner:
     1:
     0.065929,0.095185,0.092301,0.000000,0.000000,40.000000,32.000000,8.000000,0.000000,0.000000,0.000000,0.065929,0.095185,0.092301,0.000000,0.000000,40.000000,32.000000,8.000000,0.000000,0.000000,0.000000:
// measure 0
0000
0000
0000
0000
,  // measure 1
0000
0000
0000
0000
,  // measure 2
0010
0000
0000
0000
,  // measure 3
1000
0000
0000
0000
,  // measure 4
0100
0000
0000
0000
,  // measure 5
0001
0000
0000
0000
,  // measure 6
0010
0000
0000
0000
,  // measure 7
0001
0000
0000
0000
,  // measure 8
0100
0000
0000
0000
,  // measure 9
1000
0000
0000
0000
,  // measure 10
1001
0000
0000
0000
,  // measure 11
1000
0000
0000
0000
,  // measure 12
1001
0000
0000
0000
,  // measure 13
0001
0000
0000
0000
,  // measure 14
0110
0000
0000
0000
,  // measure 15
0100
0000
0000
0000
,  // measure 16
0110
0000
0000
0000
,  // measure 17
0010
0000
0000
0000
,  // measure 18
0010
0000
0000
0000
,  // measure 19
1000
0000
0000
0000
,  // measure 20
0100
0000
0000
0000
,  // measure 21
0001
0000
0000
0000
,  // measure 22
0010
0000
0000
0000
,  // measure 23
0001
0000
0000
0000
,  // measure 24
0100
0000
0000
0000
,  // measure 25
1000
0000
0000
0000
,  // measure 26
1001
0000
0000
0000
,  // measure 27
1000
0000
0000
0000
,  // measure 28
1001
0000
0000
0000
,  // measure 29
0001
0000
0000
0000
,  // measure 30
0110
0000
0000
0000
,  // measure 31
0100
0000
0000
0000
,  // measure 32
0110
0000
0000
0000
,  // measure 33
0010
0000
0000
0000
;
