#VERSION:0.83;
#TITLE:Sledgehammer;
#SUBTITLE:;
#ARTIST:Fifth Harmony;
#TITLETRANSLIT:;
#SUBTITLETRANSLIT:;
#ARTISTTRANSLIT:;
#GENRE:Pop;
#ORIGIN:;
#CREDIT:chewi;
#BANNER:Sledgehammer.png;
#BACKGROUND:Sledgehammer-bg.png;
#PREVIEWVID:;
#JACKET:Sledgehammer-jacket.png;
#CDIMAGE:;
#DISCIMAGE:;
#LYRICSPATH:;
#CDTITLE:cdtitle.png;
#MUSIC:Sledgehammer.ogg;
#OFFSET:-1.202432;
#SAMPLESTART:48.158001;
#SAMPLELENGTH:15.000000;
#SELECTABLE:YES;
#BPMS:0.000=100.000;
#STOPS:30.000=0.600;
#DELAYS:;
#WARPS:;
#TIMESIGNATURES:0.000=4=4;
#TICKCOUNTS:0.000=4;
#COMBOS:0.000=1;
#SPEEDS:0.000=1.000=0.000=0;
#SCROLLS:0.000=1.000;
#FAKES:;
#LABELS:0.000=Song Start;
#BGCHANGES:-0.200=Sledgehammer.avi=1.000=1=0=0=StretchNoLoop==CrossFade==,
99999=-nosongbg-=1.000=0=0=0 // don't automatically add -songbackground-
;
#KEYSOUNDS:;
#ATTACKS:
;

//---------------dance-single - ----------------
#NOTEDATA:;
#CHARTNAME:;
#STEPSTYPE:dance-single;
#DESCRIPTION:;
#CHARTSTYLE:;
#DIFFICULTY:Beginner;
#METER:1;
#RADARVALUES:0.052588,0.075247,0.000000,0.086616,0.000000,34.000000,34.000000,0.000000,8.000000,0.000000,0.000000,0.000000,0.000000,0.000000,0.052588,0.075247,0.000000,0.086616,0.000000,34.000000,34.000000,0.000000,8.000000,0.000000,0.000000,0.000000,0.000000,0.000000;
#CREDIT:;
#NOTES:
0000
0000
0000
0000
,
0000
0000
0000
0000
,
0000
0000
0000
0000
,
0000
0000
0000
0000
,
0010
0000
0000
0000
,
0010
0000
0000
0000
,
0100
0000
0000
0000
,
0100
0000
0000
2000
,
0000
0000
3000
1000
,
0000
0000
0000
0002
,
0000
0000
0003
0001
,
0000
0000
0000
0010
,
0000
0010
0000
0010
,
0000
0000
0000
1000
,
0000
1000
0000
1000
,
0000
0000
0000
0002
,
0000
0000
0003
0002
,
0000
0000
0003
2000
,
0000
0000
3000
2000
,
0000
0000
3000
1000
,
0000
0000
0000
0010
,
0000
0000
0000
0001
,
0000
0000
0000
0100
,
0000
0000
0000
1000
,
0000
0000
0000
0010
,
0000
0000
0000
0001
,
0000
0000
0000
0010
,
0000
0000
0000
0200
,
0000
0000
0300
0100
,
0000
0000
0000
0200
,
0000
0000
0300
0100
,
0000
0000
0000
1000
,
0000
0000
0000
0001
,
0000
0000
0000
0010
,
0000
0000
0000
0010
;

//---------------dance-single - ----------------
#NOTEDATA:;
#CHARTNAME:;
#STEPSTYPE:dance-single;
#DESCRIPTION:;
#CHARTSTYLE:;
#DIFFICULTY:Easy;
#METER:3;
#RADARVALUES:0.089709,0.134525,0.043308,0.129924,0.000000,58.000000,54.000000,4.000000,12.000000,0.000000,0.000000,0.000000,0.000000,0.000000,0.089709,0.134525,0.043308,0.129924,0.000000,58.000000,54.000000,4.000000,12.000000,0.000000,0.000000,0.000000,0.000000,0.000000;
#CREDIT:;
#NOTES:
// measure 0
0000
0000
0000
0000
,  // measure 1
0000
0000
0000
0000
,  // measure 2
0000
0000
0000
0000
,  // measure 3
0000
0000
0000
0000
,  // measure 4
2000
0000
0000
3000
,  // measure 5
1000
0000
1000
0000
,  // measure 6
0002
0000
0000
0003
,  // measure 7
0001
0000
0001
1001
,  // measure 8
0000
1000
0000
0001
,  // measure 9
0000
1000
0000
0100
,  // measure 10
0000
0010
0000
0100
,  // measure 11
0000
0010
0000
0000
,  // measure 12
0010
0000
0010
0000
,  // measure 13
0001
0000
0001
0000
,  // measure 14
1000
0000
1000
0000
,  // measure 15
0100
0000
0100
0200
,  // measure 16
0000
0300
0000
0020
,  // measure 17
0000
0030
0000
0002
,  // measure 18
0000
0003
0000
2000
,  // measure 19
0000
3000
0000
1001
,  // measure 20
0000
0100
0000
0100
,  // measure 21
0100
0100
0000
0020
,  // measure 22
0000
0000
0030
0020
,  // measure 23
0000
0000
0030
0110
,  // measure 24
0000
0010
0000
0010
,  // measure 25
0010
0010
0000
2000
,  // measure 26
0000
0000
3000
0002
,  // measure 27
0000
0000
0003
1000
,  // measure 28
0000
0100
0000
0010
,  // measure 29
0000
0100
0000
0100
,  // measure 30
0000
0010
0000
0001
,  // measure 31
0000
0010
0000
1001
,  // measure 32
0000
1000
0000
0001
,  // measure 33
0000
1000
0000
0020
,  // measure 34
0000
0000
0030
0200
,  // measure 35
0000
0000
0300
0000
;

//---------------dance-single - ----------------
#NOTEDATA:;
#CHARTNAME:;
#STEPSTYPE:dance-single;
#DESCRIPTION:;
#CHARTSTYLE:;
#DIFFICULTY:Medium;
#METER:6;
#RADARVALUES:0.191792,0.230614,0.140751,0.129924,0.000000,124.000000,111.000000,13.000000,12.000000,0.000000,0.000000,0.000000,0.000000,0.000000,0.191792,0.230614,0.140751,0.129924,0.000000,124.000000,111.000000,13.000000,12.000000,0.000000,0.000000,0.000000,0.000000,0.000000;
#CREDIT:;
#NOTES:
0000
0000
0000
0000
,
0000
0000
0000
0000
,
0000
0000
0000
0000
,
0000
0000
0000
0000
,
1000
0100
0010
0100
,
1000
0001
0100
0010
,
0100
0001
0010
0100
,
0220
0000
0330
0010
,
0010
0010
0010
0100
,
0100
0100
0100
1000
,
1000
1000
1000
0001
,
0001
0001
0001
1000
,
1100
1000
0100
0010
,
0011
0010
0001
0010
,
0110
0010
0100
1000
,
1001
0001
1000
0002
,
0003
0001
1000
0200
,
0300
0100
0010
0220
,
0330
0010
0100
2002
,
3003
0000
0000
2010
,
0001
0200
3300
0100
,
0010
0100
0000
0010
,
0001
1000
0100
0010
,
0001
1000
0100
1002
,
0100
2000
3003
1000
,
0010
0100
0000
1000
,
0100
0001
0010
1000
,
0100
0001
0010
1000
,
0100
0010
0001
1001
,
0000
0110
0000
0010
,
0100
0001
1000
1001
,
0000
0110
0000
1000
,
0100
0001
1000
0010
,
0001
1000
0001
0100
,
1000
0010
0001
0100
,
1000
0010
0001
0000
;

//---------------dance-single - ----------------
#NOTEDATA:;
#CHARTNAME:;
#STEPSTYPE:dance-single;
#DESCRIPTION:;
#CHARTSTYLE:;
#DIFFICULTY:Hard;
#METER:9;
#RADARVALUES:0.329449,0.345921,0.184058,0.108270,0.086616,213.000000,196.000000,17.000000,10.000000,0.000000,0.000000,0.000000,0.000000,0.000000,0.329449,0.345921,0.184058,0.108270,0.086616,213.000000,196.000000,17.000000,10.000000,0.000000,0.000000,0.000000,0.000000,0.000000;
#CREDIT:;
#NOTES:
0000
0000
0000
0000
,
0000
0000
0000
0000
,
0000
0000
0000
0000
,
0000
0000
0000
0000
,
2000
3020
0230
0302
,
1003
0100
0010
0100
1000
0000
1100
0000
,
0002
0023
0230
0320
,
0031
1000
0010
0100
0100
0000
0100
0000
,
0100
0000
0100
0010
0100
0001
0100
0000
,
0100
0000
0100
0010
0100
1000
0100
0000
,
0100
0000
0100
0010
0100
0001
0010
0100
,
1000
0010
1000
0000
1001
0000
1000
0100
,
0010
0000
0100
0100
0100
0000
1000
0001
,
0100
0000
0010
0010
0010
0000
1000
0001
,
0100
0000
0001
1000
0100
0000
1000
0100
,
0010
0000
0001
0000
1000
0000
0001
0000
1001
0000
0000
0000
0010
0000
0000
0010
,
0000
0000
0100
0000
0001
0000
1000
0000
0010
0000
0100
0000
0010
0000
0000
0010
,
0000
0000
1000
0000
0100
0000
0010
0000
0001
0000
0010
0000
0001
0000
0000
0001
,
0000
0000
1000
0000
0001
0000
0010
0000
0100
0000
1000
0000
0002
0000
0000
2000
,
0000
3003
0000
1010
,
0101
0000
1010
0000
1000
0001
0010
0010
,
0001
0000
1000
0000
1100
0000
0000
0000
0101
0000
0000
0000
0000
0000
0001
0100
,
0000
0001
0100
0000
0010
0000
0010
0000
0010
0000
0000
0000
0000
0000
1000
0100
,
0000
1000
0100
0000
0010
0000
0100
0000
0010
0000
0100
0000
1100
0000
0000
0000
,
0011
0000
1100
0000
0001
1000
0100
0100
,
1000
0000
0001
0000
0011
0000
0000
0000
1010
0000
0000
0000
0000
0000
1000
0010
,
0000
1000
0010
0000
0100
0000
0100
0000
0100
0000
0000
0000
0000
0000
0001
0010
,
0000
0001
0010
0000
0100
0000
0010
0000
0100
0000
0010
0000
0100
0000
1000
0000
,
0001
0010
0001
0000
0100
0010
0010
0000
,
0100
0010
0010
0000
0000
0100
0001
1000
,
0010
1000
0001
1000
0100
0010
0010
0000
,
0100
0010
0010
0001
1000
0010
0110
0000
,
1001
0000
0110
0000
1000
0100
0001
0010
,
1000
0000
0100
0000
0001
0000
0000
0000
0010
0000
0010
0000
0000
0000
0100
0010
,
0000
0100
0010
0000
1000
0000
1000
0000
1000
0000
0000
0000
0000
0000
0100
0010
,
0000
0100
0010
0000
0001
0000
1000
0000
1001
0000
0000
0000
0000
0000
0000
0000
;
