#TITLE:Sissy That Walk;
#SUBTITLE:;
#ARTIST:RuPaul;
#TITLETRANSLIT:;
#SUBTITLETRANSLIT:;
#ARTISTTRANSLIT:;
#GENRE:Pop;
#CREDIT:chewi;
#BANNER:Sissy That Walk.png;
#BACKGROUND:Sissy That Walk-bg.png;
#LYRICSPATH:;
#CDTITLE:cdtitle.png;
#MUSIC:Sissy That Walk.ogg;
#OFFSET:0.002032;
#SAMPLESTART:52.140999;
#SAMPLELENGTH:15.000000;
#SELECTABLE:YES;
#BPMS:0.000000=126.000000;
#STOPS:110.000000=0.476000,
237.000000=0.476000
;
#BGCHANGES:;
#KEYSOUNDS:;
#ATTACKS:TIME=53.330002:LEN=5.900000:MODS=stealth:TIME=114.279999:LEN=5.900000:MODS=stealth;

//---------------dance-single - ----------------
#NOTES:
     dance-single:
     :
     Medium:
     7:
     0.274904,0.280159,0.000000,0.256577,0.000000,255.000000,255.000000,0.000000,34.000000,0.000000,0.000000,0.274904,0.280159,0.000000,0.256577,0.000000,255.000000,255.000000,0.000000,34.000000,0.000000,0.000000:
// measure 0
0000
0000
0000
0000
,  // measure 1
0000
0000
0000
0000
,  // measure 2
0000
0000
0000
0000
,  // measure 3
0000
0000
0000
0000
,  // measure 4
1000
0100
0010
0100
,  // measure 5
1000
0001
1000
0001
,  // measure 6
0001
0100
0010
0100
,  // measure 7
0001
1000
0001
1000
,  // measure 8
0002
0013
0002
0103
,  // measure 9
0002
0023
0230
2300
,  // measure 10
3200
1300
2000
3100
,  // measure 11
2000
3020
0230
0302
,  // measure 12
0203
0010
0000
0010
,  // measure 13
0302
1000
0000
1000
,  // measure 14
0023
0100
0000
0100
,  // measure 15
0100
0001
0100
1000
,  // measure 16
0130
0100
1000
1000
,  // measure 17
0010
0100
0001
1000
,  // measure 18
0001
0001
0010
0010
,  // measure 19
0100
1000
0001
0010
,  // measure 20
0010
0010
0100
0100
,  // measure 21
0000
0010
0100
0000
0010
0100
0010
0000
,  // measure 22
0100
0100
0010
0010
,  // measure 23
0000
0100
0010
0000
0100
0010
0100
0000
,  // measure 24
1000
1000
0001
0001
,  // measure 25
0000
1000
0001
0000
1000
0001
1000
0000
,  // measure 26
1000
1000
0001
0002
,  // measure 27
2000
0000
3003
1000
,  // measure 28
0100
0010
0001
1000
,  // measure 29
0100
0010
0001
1000
,  // measure 30
0100
0010
0001
1000
,  // measure 31
0100
0010
0001
1000
,  // measure 32
0001
1000
0001
0100
,  // measure 33
0100
0000
0010
0010
0010
0000
0100
0000
,  // measure 34
0010
1000
0001
1000
,  // measure 35
0100
0010
0001
0001
,  // measure 36
0010
0100
0010
0001
,  // measure 37
1000
0001
1000
1000
,  // measure 38
0010
0100
0010
1000
,  // measure 39
0001
1000
0001
2000
,  // measure 40
3100
2000
3010
2000
,  // measure 41
3200
0320
0032
0023
,  // measure 42
0031
0002
0013
0002
,  // measure 43
0203
0320
2030
3020
,  // measure 44
0100
0000
0100
2030
,  // measure 45
0001
0000
0001
3200
,  // measure 46
0010
0000
0010
0010
,  // measure 47
1000
0010
0001
0310
,  // measure 48
0010
0001
0001
0100
,  // measure 49
0010
1000
0001
1000
,  // measure 50
1000
0100
0100
0010
,  // measure 51
0001
1000
0100
0100
,  // measure 52
0100
0000
0010
0000
0010
0000
0000
0100
,  // measure 53
0010
0000
0100
0010
0100
0000
0010
0000
,  // measure 54
0010
0000
0100
0000
0100
0000
0000
0010
,  // measure 55
0100
0000
0010
0100
0010
0000
0001
0000
,  // measure 56
0001
0000
1000
0000
1000
0000
0000
0001
,  // measure 57
1000
0000
0001
1000
0001
0000
0001
0000
,  // measure 58
0001
1000
2000
0002
,  // measure 59
0000
3003
0001
0010
,  // measure 60
0100
1000
0001
0010
,  // measure 61
0100
1000
0001
0010
,  // measure 62
0100
1000
0001
0010
,  // measure 63
0100
1000
0001
1000
,  // measure 64
0001
1000
0010
0010
,  // measure 65
0100
0100
0100
0000
0010
0000
0100
0000
,  // measure 66
0001
1000
0001
0010
,  // measure 67
0100
0010
0100
0010
0100
0000
0000
0000
;

//---------------dance-single - ----------------
#NOTES:
     dance-single:
     :
     Hard:
     9:
     0.310479,0.331097,0.000000,0.030185,0.000000,288.000000,288.000000,0.000000,4.000000,0.000000,0.000000,0.310479,0.331097,0.000000,0.030185,0.000000,288.000000,288.000000,0.000000,4.000000,0.000000,0.000000:
// measure 0
0000
0000
0000
0000
,  // measure 1
0000
0000
0000
0000
,  // measure 2
0000
0000
0000
0000
,  // measure 3
0000
0000
0000
0000
,  // measure 4
1000
0000
0100
0000
1000
0001
0100
0000
,  // measure 5
0010
0100
0001
1000
,  // measure 6
0010
0000
0100
0000
0001
0010
0100
0000
,  // measure 7
1000
0000
0001
0000
0010
0100
1000
0000
,  // measure 8
0010
0010
0100
0000
0010
0100
0001
0000
,  // measure 9
0010
0010
0100
0000
0010
0100
1000
0000
,  // measure 10
0001
0000
1000
0000
0001
1000
0100
0000
,  // measure 11
1000
0000
0001
0000
1000
0001
0100
0001
,  // measure 12
0000
0000
1000
0001
0000
1000
0000
0010
,  // measure 13
0000
0000
1000
0001
0000
0010
0000
0100
,  // measure 14
0000
0000
1000
0001
0000
1000
0000
0100
,  // measure 15
0000
0000
0010
0000
0001
0000
1000
0010
,  // measure 16
0000
0000
1000
0100
0000
0010
0000
0001
,  // measure 17
0000
0000
0001
0010
0000
0100
0000
1000
,  // measure 18
0000
0000
1000
0010
0000
0100
0000
0001
,  // measure 19
0000
0001
0000
0100
0000
0010
0000
1000
,  // measure 20
0001
0001
0001
0001
,  // measure 21
0000
1000
1000
0000
0001
1000
0010
0000
,  // measure 22
0100
0100
0100
0100
,  // measure 23
0000
0100
0100
0000
0010
0100
0001
0000
,  // measure 24
0010
0010
0010
0010
,  // measure 25
0000
0010
0010
0000
0010
0100
1000
0000
,  // measure 26
1000
1000
1000
2000
,  // measure 27
0002
0000
3003
1000
,  // measure 28
0100
0010
0001
1000
,  // measure 29
0100
0010
0001
1000
,  // measure 30
0100
0010
0001
1000
,  // measure 31
0100
0000
0010
0000
0001
0000
0100
0100
,  // measure 32
0010
0000
0100
0000
0001
0000
0001
0010
,  // measure 33
0000
0100
1000
0000
0001
0000
1000
1000
,  // measure 34
0001
0000
0100
0000
0010
0000
1000
0001
,  // measure 35
0000
0010
0100
0010
0100
0010
0001
0000
,  // measure 36
0010
0000
0001
1000
0010
0000
0100
0000
,  // measure 37
0010
1000
0001
0100
,  // measure 38
0010
0000
1000
0100
0010
0000
0001
0000
,  // measure 39
1000
0000
0100
0010
0001
0000
0100
0100
,  // measure 40
0010
0000
0100
0010
1000
0000
0100
0100
,  // measure 41
0010
0000
0100
0010
0001
0000
1000
0000
,  // measure 42
0001
0000
1000
0001
0010
0000
0001
0000
,  // measure 43
1000
0000
0001
1000
0010
0000
0000
0000
,  // measure 44
0001
1000
0000
0001
0000
0100
0000
0000
,  // measure 45
0001
1000
0000
0100
0000
0010
0000
0000
,  // measure 46
0001
1000
0000
0001
0000
0010
0000
0000
,  // measure 47
0100
0000
1000
0000
0001
0100
0000
0000
,  // measure 48
0001
0010
0000
0100
0000
1000
0000
0000
,  // measure 49
1000
0100
0000
0010
0000
0001
0000
0000
,  // measure 50
0001
0100
0000
0010
0000
1000
0000
1000
,  // measure 51
0000
0010
0000
0100
0000
0001
1000
0000
,  // measure 52
1000
0000
1000
0000
1000
0000
0000
0001
,  // measure 53
0001
0000
1000
0001
0100
0000
0010
0000
,  // measure 54
0010
0000
0010
0000
0010
0000
0000
0010
,  // measure 55
0010
0000
0100
0010
1000
0000
0100
0000
,  // measure 56
0100
0000
0100
0000
0100
0000
0000
0100
,  // measure 57
0100
0000
0100
0010
0001
0000
0001
0000
,  // measure 58
0001
0001
0002
2000
,  // measure 59
0000
3003
0001
0010
,  // measure 60
0100
1000
0001
0010
,  // measure 61
0100
1000
0001
0010
,  // measure 62
0100
1000
0001
0010
,  // measure 63
0100
0000
1000
0000
0010
0010
0100
0000
,  // measure 64
0010
0000
1000
0000
1000
0100
0000
0010
,  // measure 65
0001
0000
1000
0000
0001
0001
1000
0000
,  // measure 66
0010
0000
0100
0000
0001
1000
0000
0100
,  // measure 67
0010
0100
0010
0100
0010
0000
0000
0000
;

//---------------dance-single - ----------------
#NOTES:
     dance-single:
     :
     Easy:
     4:
     0.189737,0.253747,0.090556,0.135835,0.000000,176.000000,164.000000,12.000000,18.000000,0.000000,0.000000,0.189737,0.253747,0.090556,0.135835,0.000000,176.000000,164.000000,12.000000,18.000000,0.000000,0.000000:
// measure 0
0000
0000
0000
0000
,  // measure 1
0000
0000
0000
0000
,  // measure 2
0000
0000
0000
0000
,  // measure 3
0000
0000
0000
0000
,  // measure 4
1000
0100
1000
0000
,  // measure 5
0001
0100
0001
0000
,  // measure 6
1000
0010
1000
0000
,  // measure 7
0001
0010
0001
0000
,  // measure 8
0010
0100
1000
0000
,  // measure 9
0010
0100
0001
0000
,  // measure 10
0100
0010
1000
0000
,  // measure 11
0100
0010
0001
0000
,  // measure 12
0002
0000
0000
0003
,  // measure 13
2000
0000
0000
3000
,  // measure 14
0020
0000
0000
0030
,  // measure 15
0200
0000
0000
0300
,  // measure 16
0200
0000
0000
0300
,  // measure 17
0020
0000
0000
0030
,  // measure 18
2000
0000
0000
3000
,  // measure 19
0002
0000
0000
0003
,  // measure 20
1000
1000
1000
1000
,  // measure 21
0000
1001
0000
1001
,  // measure 22
0001
0001
0001
0001
,  // measure 23
0000
1001
0000
1001
,  // measure 24
0100
0100
0100
0100
,  // measure 25
0000
0110
0000
0110
,  // measure 26
0010
0010
0010
0010
,  // measure 27
0020
0000
0030
1000
,  // measure 28
0100
0010
0001
1000
,  // measure 29
0100
0010
0001
1000
,  // measure 30
0100
0010
0001
1000
,  // measure 31
0100
0010
0001
1000
,  // measure 32
0000
1000
0000
1000
,  // measure 33
1000
1000
0000
0001
,  // measure 34
0000
0001
0000
0001
,  // measure 35
0001
0001
0001
0001
,  // measure 36
0010
0001
0000
1000
,  // measure 37
0010
1000
0000
0001
,  // measure 38
0100
0001
0000
1000
,  // measure 39
0100
1000
0000
0100
,  // measure 40
0010
0001
0000
0100
,  // measure 41
0010
1000
0000
0010
,  // measure 42
0100
0001
0000
0010
,  // measure 43
0100
1000
0000
2000
,  // measure 44
0000
0000
3000
0002
,  // measure 45
0000
0000
0003
0200
,  // measure 46
0000
0000
0300
0020
,  // measure 47
0000
0000
0030
0020
,  // measure 48
0000
0000
0030
0200
,  // measure 49
0000
0000
0300
0002
,  // measure 50
0000
0000
0003
2000
,  // measure 51
0000
0000
3000
0001
,  // measure 52
0001
0001
0001
0000
,  // measure 53
1001
0000
1001
1000
,  // measure 54
1000
1000
1000
0000
,  // measure 55
1001
0000
1001
0010
,  // measure 56
0010
0010
0010
0000
,  // measure 57
0110
0000
0110
0100
,  // measure 58
0100
0100
0100
0200
,  // measure 59
0000
0300
0001
0010
,  // measure 60
0100
1000
0001
0010
,  // measure 61
0100
1000
0001
0010
,  // measure 62
0100
1000
0001
0010
,  // measure 63
0100
1000
0001
0000
,  // measure 64
0001
0000
0001
0001
,  // measure 65
0001
0000
1000
0000
,  // measure 66
1000
0000
1000
1000
,  // measure 67
1000
1000
0000
0000
;

//---------------dance-single - ----------------
#NOTES:
     dance-single:
     :
     Beginner:
     1:
     0.068995,0.100367,0.000000,0.060371,0.000000,64.000000,64.000000,0.000000,8.000000,0.000000,0.000000,0.068995,0.100367,0.000000,0.060371,0.000000,64.000000,64.000000,0.000000,8.000000,0.000000,0.000000:
0000
0000
0000
0000
,
0000
0000
0000
0000
,
0000
0000
0000
0000
,
0000
0000
0000
0000
,
1000
0000
0000
0000
,
1000
0000
0000
0000
,
0001
0000
0000
0000
,
0001
0000
0000
0000
,
0100
0000
0000
0000
,
0100
0000
0000
0000
,
0010
0000
0000
0000
,
0010
0000
0000
0000
,
2000
0000
0000
3000
,
1000
0000
0000
0000
,
0002
0000
0000
0003
,
0001
0000
0000
0000
,
2000
0000
0000
3000
,
1000
0000
0000
0000
,
0002
0000
0000
0003
,
0001
0000
0000
0000
,
0100
0000
0100
0000
,
0100
0000
0000
0000
,
0010
0000
0010
0000
,
0010
0000
0000
0000
,
0100
0000
0100
0000
,
0100
0000
0000
0000
,
0010
0000
0010
0000
,
0010
0000
0000
0000
,
0000
0000
0000
0000
,
0000
0000
0000
0000
,
0000
0000
0000
0000
,
0000
0000
0000
1000
,
0000
0000
0000
1000
,
0000
0000
0000
0001
,
0000
0000
0000
0001
,
0000
0000
0000
1000
,
0000
0000
0000
1000
,
0000
0000
0000
0001
,
0000
0000
0000
0001
,
0000
0000
0000
0100
,
0000
0000
0000
0100
,
0000
0000
0000
0010
,
0000
0000
0000
0010
,
0000
0000
0000
2000
,
0000
0000
3000
1000
,
0000
0000
0000
0002
,
0000
0000
0003
0001
,
0000
0000
0000
2000
,
0000
0000
3000
1000
,
0000
0000
0000
0002
,
0000
0000
0003
0001
,
0000
0000
0000
0100
,
0000
0100
0000
0100
,
0000
0000
0000
0010
,
0000
0010
0000
0010
,
0000
0000
0000
0100
,
0000
0100
0000
0100
,
0000
0000
0000
0010
,
0000
0010
0000
0010
,
0000
0000
0000
0000
,
0000
0000
0000
0000
,
0000
0000
0000
0000
,
0000
0000
0000
0000
,
0000
0000
0001
0000
,
0000
0000
0001
0000
,
0000
0000
1000
0000
,
0000
0000
1000
0000
;
