#TITLE:Silvia Drive;
#SUBTITLE:;
#ARTIST:dj TAKA feat. のりあ;
#TITLETRANSLIT:;
#SUBTITLETRANSLIT:;
#ARTISTTRANSLIT:dj TAKA feat.Noria;
#GENRE:;
#CREDIT:Chewi☆;
#MENUCOLOR:;
#METERTYPE:DDR X;
#BANNER:Silvia Drive.png;
#BACKGROUND:Silvia Drive-bg.png;
#LYRICSPATH:;
#CDTITLE:;
#MUSIC:Silvia Drive.mp3;
#OFFSET:-0.465;
#SAMPLESTART:7.895;
#SAMPLELENGTH:15.000;
#SELECTABLE:YES;
#LISTSORT:;
#BPMS:0.000=129.000;
#STOPS:;
#BGCHANGES:;
#ATTACKS:;

//---------------dance-single - Chewi----------------
#NOTES:
     dance-single:
     Chewi:
     Hard:
     10:
     0.385,0.442,0.176,0.079,0.079:
0000
0000
0000
0000
,
0000
0000
0000
0000
,
0000
0000
0000
0000
,
0000
0000
0000
0000
,
0000
1000
1000
1000
0000
0001
0001
0001
,
0000
1000
1000
1000
0000
0001
0001
0001
,
1000
0100
0010
0001
,
1000
0100
0010
0001
,
0000
0010
0010
0010
0000
0100
0100
0100
,
0000
0010
0010
0010
0000
0100
0100
0100
,
0010
0001
0100
1000
,
0010
0001
0010
0100
,
2200
3300
0022
0033
,
1001
0000
1000
0001
1000
0100
0010
0001
,
0010
0100
1000
0010
,
0100
1000
0010
0100
,
0202
0303
0022
0033
,
1001
0000
1000
0100
0010
0100
1000
0001
,
0100
0010
0001
0100
,
0010
0001
0100
0010
,
1000
0000
0000
1000
0010
0000
0000
0010
1000
0000
0000
1000
0100
0000
0000
0100
,
0010
0001
0010
0000
0001
0000
0011
0000
,
0001
0000
0000
0001
0010
0000
0000
0010
0100
0000
0000
0100
1000
0000
0000
1000
,
0010
1000
0100
0000
1000
0000
1100
0000
,
1000
0001
0100
0000
,
0010
0100
0001
1000
0000
0000
0000
0000
,
0100
0000
0010
0000
0100
0000
1000
0010
,
0100
0001
0010
0000
0100
0000
0011
0000
,
0100
1000
0010
0000
,
1000
0010
0100
0001
0010
0000
0100
0000
,
0010
0001
0010
0100
,
1000
0010
1000
0100
0010
0001
1000
0000
,
0000
0100
0000
0010
0000
0001
0000
1000
,
0000
1100
0000
0001
0000
0101
0000
1000
,
0010
0000
0100
0000
0001
0010
0100
1000
,
1000
0000
0100
0000
0010
0001
0010
0100
,
1000
0010
1000
0000
1000
0100
0010
0000
,
0001
0010
0001
0000
0001
0100
0010
0000
,
0100
0010
1000
0000
0100
0010
0001
0000
,
0011
0000
0000
0000
0000
0000
1000
0001
1000
0001
0000
0000
,
1000
0000
0000
1000
0010
0000
0000
0010
0100
0000
0000
0100
0001
0000
0000
0001
,
0010
0001
0010
0000
1000
0100
1000
0000
,
1001
0100
0010
0000
1000
0000
0010
0000
,
0101
0010
0100
0000
1000
0000
0010
0000
,
1000
0000
0000
1000
0100
0000
0000
0100
0010
0000
0000
0010
0001
0000
0000
0001
,
0010
0100
1000
0000
0010
0100
0001
0000
,
0101
0010
1000
0000
0001
0000
1000
0000
,
1010
0010
0100
0000
0001
0000
0100
0000
,
0000
0010
0010
0010
0000
0100
0100
0100
,
0000
0010
0010
0010
0000
0100
0100
0100
,
0010
1000
0001
0100
,
0010
1000
0001
0100
,
0000
0001
0001
0001
0000
1000
1000
1000
,
0000
0001
0001
0001
0000
1000
1000
1000
,
0001
0100
1000
0010
,
0001
0100
0001
1000
,
1000
0010
1000
0001
,
1001
0110
1001
0110
,
0020
0000
0000
0000
,
0030
0000
0000
0000
;

//---------------dance-single - Chewi----------------
#NOTES:
     dance-single:
     Chewi:
     Medium:
     7:
     0.289,0.338,0.026,0.044,0.000: // measure 1
0000
0000
0000
0000
,  // measure 2
0000
0000
0000
0000
,  // measure 3
0000
0000
0000
0000
,  // measure 4
0000
0000
0000
0000
,  // measure 5
0000
1000
1000
1000
0000
1000
1000
1000
,  // measure 6
0000
1000
1000
1000
0000
1000
1000
1000
,  // measure 7
1000
0010
1000
0010
,  // measure 8
0100
0001
0100
0001
,  // measure 9
0000
0001
0001
0001
0000
0001
0001
0001
,  // measure 10
0000
0001
0001
0001
0000
0001
0001
0001
,  // measure 11
0010
0100
1000
0010
,  // measure 12
1000
0100
1000
0010
,  // measure 13
0200
0000
0320
0000
,  // measure 14
1030
0010
0100
0001
,  // measure 15
0010
0100
1000
0010
,  // measure 16
1000
0100
0010
0001
,  // measure 17
2000
0000
3002
0000
,  // measure 18
1003
0010
0100
0001
,  // measure 19
0100
0010
0001
0100
,  // measure 20
0010
0001
0100
0010
,  // measure 21
0110
0010
0010
0010
,  // measure 22
1000
0001
1000
0001
,  // measure 23
1001
0001
0001
0001
,  // measure 24
0010
0000
0100
0000
,  // measure 25
1000
0100
0010
0000
,  // measure 26
0001
1000
0001
1000
0000
0000
0000
0000
,  // measure 27
0001
0100
0010
0000
,  // measure 28
0100
0010
0100
0010
0000
0000
0000
0000
,  // measure 29
0010
1000
0100
0000
,  // measure 30
1000
0100
1000
0100
0000
0000
0000
0000
,  // measure 31
0100
0010
0001
0000
,  // measure 32
0010
0001
0010
0001
0000
0000
0000
0000
,  // measure 33
0000
1000
0000
1000
0000
0001
0000
0001
,  // measure 34
0000
0100
0000
0100
0000
0010
0000
0010
,  // measure 35
0010
0010
1000
1000
,  // measure 36
0001
0010
0100
1000
,  // measure 37
1000
0100
0010
0001
,  // measure 38
1000
0100
0010
0001
,  // measure 39
0100
0010
1000
0001
,  // measure 40
0101
0000
0100
0100
,  // measure 41
0010
0010
0010
0010
,  // measure 42
1000
1000
1000
1000
,  // measure 43
0100
0100
0100
0100
,  // measure 44
0001
0001
0001
0001
,  // measure 45
0010
0001
0010
1000
,  // measure 46
0010
0001
0100
1000
,  // measure 47
0010
1000
0100
1000
,  // measure 48
0010
0100
0001
1000
,  // measure 49
0000
0100
0100
0100
0000
0100
0100
0100
,  // measure 50
0000
0100
0100
0100
0000
0100
0100
0100
,  // measure 51
0100
0100
0010
0010
,  // measure 52
0001
0001
1000
1000
,  // measure 53
0000
0001
0001
0001
0000
0001
0001
0001
,  // measure 54
0000
0001
0001
0001
0000
0001
0001
0001
,  // measure 55
0001
1000
0010
0100
,  // measure 56
0010
1000
0001
0010
,  // measure 57
0100
0100
0010
0010
,  // measure 58
0100
0100
0010
0010
,  // measure 59
0020
0000
0000
0000
,  // measure 60
0030
0000
0000
0000
;

//---------------dance-single - Chewi----------------
#NOTES:
     dance-single:
     Chewi:
     Beginner:
     3:
     0.094,0.128,0.000,0.000,0.000: // measure 1
0000
0000
0000
0000
,  // measure 2
0000
0000
0000
0000
,  // measure 3
0000
0000
0000
0000
,  // measure 4
0000
0000
0000
0000
,  // measure 5
0000
0100
0000
0100
,  // measure 6
0000
0100
0000
0100
,  // measure 7
0000
0000
0000
0000
,  // measure 8
0000
0000
0000
0000
,  // measure 9
0000
0010
0000
0010
,  // measure 10
0000
0010
0000
0010
,  // measure 11
0000
0000
0000
0000
,  // measure 12
0000
0000
0000
0000
,  // measure 13
1000
0000
0000
0000
,  // measure 14
0001
0000
0000
0000
,  // measure 15
1000
0000
0000
0000
,  // measure 16
0001
0000
0000
0000
,  // measure 17
1000
0000
0000
0000
,  // measure 18
0100
0000
0000
0000
,  // measure 19
0001
0000
0000
0000
,  // measure 20
0100
0000
0000
0000
,  // measure 21
1000
0000
1000
0000
,  // measure 22
1000
0000
1000
0000
,  // measure 23
0001
0000
0001
0000
,  // measure 24
0001
0000
0001
0000
,  // measure 25
1000
0000
0000
0000
,  // measure 26
0001
0000
0100
0000
,  // measure 27
0001
0000
0000
0000
,  // measure 28
1000
0000
0010
0000
,  // measure 29
1000
0000
0000
0000
,  // measure 30
0010
0000
0010
0000
,  // measure 31
0001
0000
0000
0000
,  // measure 32
0100
0000
0100
0000
,  // measure 33
0010
0000
0000
0000
,  // measure 34
1000
0000
0000
0000
,  // measure 35
0001
0000
0001
0000
,  // measure 36
1000
0000
1000
0000
,  // measure 37
0100
0000
0000
0000
,  // measure 38
0001
0000
0000
0000
,  // measure 39
0001
0000
0000
0000
,  // measure 40
0100
0000
0000
0000
,  // measure 41
0100
0000
0010
0000
,  // measure 42
0100
0000
0010
0000
,  // measure 43
0001
0000
0001
0000
,  // measure 44
0001
0000
0001
0000
,  // measure 45
0001
0000
1000
0000
,  // measure 46
0001
0000
1000
0000
,  // measure 47
0010
0000
0010
0000
,  // measure 48
0010
0000
0010
0000
,  // measure 49
0000
0100
0000
0100
,  // measure 50
0000
0100
0000
0100
,  // measure 51
0000
0000
0000
0000
,  // measure 52
0000
0000
0000
0000
,  // measure 53
0000
0010
0000
0010
,  // measure 54
0000
0010
0000
0010
,  // measure 55
0000
0000
0000
0000
,  // measure 56
0000
0000
0000
0000
,  // measure 57
1000
0000
1000
0000
,  // measure 58
0001
0000
0001
0000
,  // measure 59
0100
0000
0000
0000
;

//---------------dance-single - Chewi----------------
#NOTES:
     dance-single:
     Chewi:
     Easy:
     4:
     0.239,0.234,0.141,0.097,0.000: // measure 1
0000
0000
0000
0000
,  // measure 2
0000
0000
0000
0000
,  // measure 3
0000
0000
0000
0000
,  // measure 4
0000
0000
0000
0000
,  // measure 5
0000
0100
0100
0100
,  // measure 6
0100
0100
0100
0100
,  // measure 7
0110
0000
0110
0000
,  // measure 8
0110
0000
0110
0000
,  // measure 9
0000
0010
0010
0010
,  // measure 10
0010
0010
0010
0010
,  // measure 11
1001
0000
1001
0000
,  // measure 12
1001
0000
1001
0000
,  // measure 13
1000
0010
0001
0000
,  // measure 14
0001
0010
1000
0000
,  // measure 15
1000
0100
0001
0000
,  // measure 16
0001
0100
1000
0000
,  // measure 17
1000
0100
1000
0000
,  // measure 18
0100
0010
0001
0000
,  // measure 19
0001
0100
0001
0000
,  // measure 20
0100
0010
1000
0000
,  // measure 21
1000
1000
1000
1000
,  // measure 22
1000
1000
1000
1000
,  // measure 23
0001
0001
0001
0001
,  // measure 24
0001
0001
0001
0001
,  // measure 25
1000
0001
1000
0000
,  // measure 26
0001
0100
0100
0000
,  // measure 27
0001
1000
0001
0000
,  // measure 28
1000
0010
0010
0000
,  // measure 29
1000
0100
0010
0000
,  // measure 30
0010
0001
0010
0000
,  // measure 31
0001
0100
0010
0000
,  // measure 32
0100
0010
0100
0000
,  // measure 33
0020
0000
0000
0000
,  // measure 34
2030
0000
0000
0000
,  // measure 35
3001
0001
0001
0001
,  // measure 36
1000
1000
1000
1000
,  // measure 37
0100
0000
0010
0000
,  // measure 38
0001
0100
1000
0010
,  // measure 39
0001
0000
0010
0000
,  // measure 40
0100
1000
0010
1000
,  // measure 41
0200
0000
0320
0000
,  // measure 42
0230
0000
0320
0000
,  // measure 43
0031
1000
0001
1000
,  // measure 44
0001
1000
0001
1000
,  // measure 45
0002
0000
2003
0000
,  // measure 46
3002
0000
2003
0000
,  // measure 47
3010
0100
0010
0100
,  // measure 48
0010
0100
0010
0100
,  // measure 49
0000
0100
0100
0100
,  // measure 50
0100
0100
0100
0100
,  // measure 51
0110
0000
0110
0000
,  // measure 52
0110
0000
0110
0000
,  // measure 53
0000
0010
0010
0010
,  // measure 54
0010
0010
0010
0010
,  // measure 55
1001
0000
1001
0000
,  // measure 56
1001
0000
1001
0000
,  // measure 57
1000
0100
1000
0100
,  // measure 58
0010
0001
0010
0001
,  // measure 59
0002
0000
0000
0000
,  // measure 60
0003
0000
0000
0000
;
