#TITLE:Sidewalk;
#SUBTITLE:;
#ARTIST:Piper Rockelle;
#TITLETRANSLIT:;
#SUBTITLETRANSLIT:;
#ARTISTTRANSLIT:;
#GENRE:;
#CREDIT:;
#BANNER:Sidewalk.png;
#BACKGROUND:Sidewalk-bg.png;
#LYRICSPATH:;
#CDTITLE:;
#MUSIC:Sidewalk.ogg;
#OFFSET:0.000000;
#SAMPLESTART:46.901001;
#SAMPLELENGTH:12.000000;
#SELECTABLE:YES;
#BPMS:0.000000=71.000000
;
#STOPS:86.750000=0.814000
;
#BGCHANGES:0.000=Sidewalk.avi=1.000=1=0=1===CrossFade==,
102.000=Sidewalk-bg.png=1.000=1=0=1===CrossFade==,
99999=-nosongbg-=1.000=0=0=0 // don't automatically add -songbackground-
;
#KEYSOUNDS:;
#ATTACKS:;

//---------------dance-single - ----------------
#NOTES:
     dance-single:
     :
     Hard:
     10:
     0.302974,0.327332,0.167433,0.089298,0.212082,190.000000,175.000000,15.000000,8.000000,0.000000,0.000000,0.302974,0.327332,0.167433,0.089298,0.212082,190.000000,175.000000,15.000000,8.000000,0.000000,0.000000:
// measure 0
0000
0000
0000
0000
,  // measure 1
0000
0000
0000
0000
,  // measure 2
0000
0100
0010
0000
0000
0001
1000
0010
,  // measure 3
0000
0100
0001
0000
0000
0010
0100
1000
,  // measure 4
0000
0001
0100
0100
0001
0010
0100
1000
,  // measure 5
0000
0001
1000
0001
0000
0000
0100
0100
,  // measure 6
0010
0000
0000
1000
0001
0000
0100
0000
0000
0000
0010
0000
0100
0000
0000
0000
,  // measure 7
0100
0000
0000
0001
1000
0000
0100
0000
0000
0000
0010
0000
0001
0000
0000
0000
,  // measure 8
0100
0000
0010
1000
1000
0010
0100
0000
,  // measure 9
1000
0000
1000
0000
0001
0000
0001
0000
1000
0001
1000
0000
1001
0000
0000
0000
,  // measure 10
0010
0000
0000
0010
0010
0000
0010
0000
0330
0010
0010
0000
0010
0000
0000
0010
,  // measure 11
0100
0000
0000
0100
0100
0000
0100
0000
0000
0100
0100
0000
0100
0000
0000
0000
,  // measure 12
1000
0010
0100
0000
1000
0100
0010
0000
,  // measure 13
0001
0100
0010
0000
0010
1000
0001
0100
,  // measure 14
0101
0000
0000
0100
0001
0000
0100
0000
0020
0030
0020
0030
1000
0000
0010
1000
,  // measure 15
1010
0000
0000
1000
0010
0000
1000
0001
0020
0030
0020
0030
0100
0000
0010
0000
,  // measure 16
0011
0011
0000
1000
1001
1001
0000
0010
,  // measure 17
0100
0000
0010
0100
0010
0000
1000
0000
0001
1000
0001
1000
0001
0000
1000
0000
,  // measure 18
1010
0000
0000
0010
1000
0000
0010
0000
0200
0300
0200
0300
0001
0000
0100
0001
,  // measure 19
0101
0000
0000
0001
0100
0000
0001
1000
0200
0300
0200
0300
0010
0000
0100
0000
,  // measure 20
1100
1100
0000
0001
1001
1001
0000
0100
,  // measure 21
0010
0000
0100
0010
0100
0000
0001
0000
1000
0001
1000
0001
1000
0000
0000
1000
,  // measure 22
0010
0000
0100
0000
0000
0000
0010
0000
0101
0000
0000
0000
0001
0000
0000
0001
,  // measure 23
0010
0000
0100
0000
0000
0000
0010
0000
1100
0000
0000
0000
1000
0100
1000
0100
,  // measure 24
1000
0000
0000
0000
0001
0100
0001
0100
0001
0000
0000
0000
0100
0000
0100
0000
,  // measure 25
0100
0000
0100
0000
0100
0010
0001
0010
0100
0000
0000
0000
0000
0000
0000
0000
;

//---------------dance-single - ----------------
#NOTES:
     dance-single:
     :
     Medium:
     7:
     0.197731,0.227709,0.089298,0.089298,0.000000,124.000000,116.000000,8.000000,8.000000,0.000000,0.000000,0.197731,0.227709,0.089298,0.089298,0.000000,124.000000,116.000000,8.000000,8.000000,0.000000,0.000000:
// measure 0
0000
0000
0000
0000
,  // measure 1
0000
0000
0000
0000
,  // measure 2
1000
0000
1000
0100
0000
1000
0100
0000
,  // measure 3
0010
0000
0010
0001
0000
0010
0001
0000
,  // measure 4
0001
1000
0001
1000
0000
0100
0100
0000
,  // measure 5
1000
0001
1000
0001
0000
0100
0100
0000
,  // measure 6
0100
0000
0010
0000
1000
1000
1000
0000
,  // measure 7
0100
0000
0010
0000
0001
0001
0001
0000
,  // measure 8
1000
0000
0001
0000
1000
1000
1000
0000
,  // measure 9
0001
0000
1000
0000
0001
0001
0001
0000
,  // measure 10
0002
0000
0000
3000
0203
0000
0000
0003
,  // measure 11
0320
0000
0000
0300
2030
0000
0030
0000
,  // measure 12
3002
0000
0000
0000
0023
0000
0000
3000
,  // measure 13
0230
0000
0000
0000
2300
0000
0333
0001
,  // measure 14
3001
0000
0100
0000
0101
0101
0000
0000
,  // measure 15
0001
1000
0010
0100
0000
0110
0110
0000
,  // measure 16
0010
0010
0000
0000
0100
0100
0000
0000
,  // measure 17
0100
0100
0001
0001
0010
0010
0100
0100
,  // measure 18
1003
0000
0010
0000
1010
1010
0000
0000
,  // measure 19
1000
0001
0100
0010
0000
0110
0110
0000
,  // measure 20
0100
0100
0000
0000
0010
0010
0000
0000
,  // measure 21
0010
0010
1000
1000
0100
0100
0010
0000
,  // measure 22
0010
0000
0010
0001
0100
1000
0010
0000
,  // measure 23
0010
0000
0010
1000
0100
0001
0010
0000
,  // measure 24
0100
0000
0010
0001
1000
0100
1000
0000
,  // measure 25
0010
0000
0100
0001
0100
0000
0000
0000
;

//---------------dance-single - ----------------
#NOTES:
     dance-single:
     :
     Easy:
     3:
     0.108433,0.142318,0.022324,0.044649,0.000000,68.000000,66.000000,2.000000,4.000000,0.000000,0.000000,0.108433,0.142318,0.022324,0.044649,0.000000,68.000000,66.000000,2.000000,4.000000,0.000000,0.000000:
// measure 0
0000
0000
0000
0000
,  // measure 1
0000
0000
0000
0000
,  // measure 2
1000
0100
0000
0100
,  // measure 3
0010
0001
0000
0001
,  // measure 4
0010
0100
0000
0100
,  // measure 5
1000
0001
0000
0001
,  // measure 6
1000
0010
1000
0000
,  // measure 7
0010
0100
0010
0000
,  // measure 8
0100
0001
0100
0000
,  // measure 9
0001
1000
0001
0000
,  // measure 10
0002
0000
0000
0003
,  // measure 11
0020
0000
0000
0030
,  // measure 12
0200
0000
0000
0300
,  // measure 13
2000
0000
0000
3000
,  // measure 14
1001
0000
0000
0000
1000
1000
0000
0000
,  // measure 15
0001
0000
0000
0000
0100
0100
0000
0000
,  // measure 16
0010
0010
0010
0010
,  // measure 17
0100
0100
0100
0100
,  // measure 18
1001
0000
0000
0000
0001
0001
0000
0000
,  // measure 19
1000
0000
0000
0000
0100
0100
0000
0000
,  // measure 20
1000
0100
0010
0100
,  // measure 21
1000
0100
1000
1000
,  // measure 22
0000
0001
0000
0100
,  // measure 23
0000
0010
0000
0100
,  // measure 24
0000
0001
0000
1000
,  // measure 25
1000
0000
0001
0001
0001
0000
0000
0000
;

//---------------dance-single - ----------------
#NOTES:
     dance-single:
     :
     Beginner:
     1:
     0.041460,0.057485,0.022324,0.000000,0.000000,26.000000,24.000000,2.000000,0.000000,0.000000,0.000000,0.041460,0.057485,0.022324,0.000000,0.000000,26.000000,24.000000,2.000000,0.000000,0.000000,0.000000:
// measure 0
0000
0000
0000
0000
,  // measure 1
0000
0000
0000
0000
,  // measure 2
1000
0000
0000
0000
,  // measure 3
0010
0000
0000
0000
,  // measure 4
0010
0000
0000
0000
,  // measure 5
1000
0000
0000
0000
,  // measure 6
1000
0000
0000
0000
,  // measure 7
0010
0000
0000
0000
,  // measure 8
0100
0000
0000
0000
,  // measure 9
0001
0000
0000
0000
,  // measure 10
0001
0000
0000
0003
,  // measure 11
0010
0000
0000
0030
,  // measure 12
0100
0000
0000
0300
,  // measure 13
1000
0000
0000
3000
,  // measure 14
1001
0000
0000
3000
,  // measure 15
0001
0000
0000
0000
,  // measure 16
0010
0000
0000
0000
,  // measure 17
0100
0000
0000
0000
,  // measure 18
1001
0000
0000
0000
,  // measure 19
1003
0000
0000
0300
,  // measure 20
1000
0000
0000
0000
,  // measure 21
1000
0000
0000
1000
,  // measure 22
0000
0000
0000
0100
,  // measure 23
0000
0000
0000
0100
,  // measure 24
0000
0000
0000
1000
,  // measure 25
0000
0000
0000
0003
;
