#TITLE:Shut Up (Feat. 유희열);
#SUBTITLE:;
#ARTIST:언니쓰;
#TITLETRANSLIT:Shut Up (Feat. You Hee-yeol);
#SUBTITLETRANSLIT:;
#ARTISTTRANSLIT:Unnies;
#GENRE:Pop;
#CREDIT:chewi;
#BANNER:Shut Up (Feat. You Hee-yeol).png;
#BACKGROUND:Shut Up (Feat. You Hee-yeol)-bg.png;
#LYRICSPATH:;
#CDTITLE:cdtitle.png;
#MUSIC:Shut Up (Feat. You Hee-yeol).ogg;
#OFFSET:-4.303000;
#SAMPLESTART:63.700001;
#SAMPLELENGTH:15.000000;
#SELECTABLE:YES;
#DISPLAYBPM:105.000000;
#BPMS:0.000000=105.000000
;
#STOPS:
;
#BGCHANGES:-7.000=Shut Up (Feat. You Hee-yeol).avi=1.000=1=0=0=StretchNoLoop==CrossFade==,
99999=-nosongbg-=1.000=0=0=0 // don't automatically add -songbackground-
;
#KEYSOUNDS:;
#ATTACKS:;

//---------------dance-single - ----------------
#NOTES:
     dance-single:
     :
     Hard:
     9:
     0.316177,0.325036,0.181764,0.000000,0.016038,207.000000,190.000000,17.000000,0.000000,0.000000,0.000000,0.316177,0.325036,0.181764,0.000000,0.016038,207.000000,190.000000,17.000000,0.000000,0.000000,0.000000:
// measure 0
0000
0000
0000
0000
,  // measure 1
0000
0000
0000
0000
,  // measure 2
1001
0000
0000
0000
0000
0000
0000
0000
0000
0000
0000
0000
0000
0000
1000
1000
,  // measure 3
0000
0000
0000
0000
,  // measure 4
0110
0000
0000
0000
0000
0000
0000
0000
0000
0000
0000
0000
0000
0000
0010
0010
,  // measure 5
0000
0000
0000
0000
,  // measure 6
0101
0000
0000
0000
0000
0000
0000
0000
0000
0000
0000
0000
0000
0000
0001
0001
,  // measure 7
0000
0000
0000
0000
,  // measure 8
0010
0010
0001
0010
0001
0000
0101
0000
,  // measure 9
0001
0001
0100
0001
0100
0000
0110
0000
,  // measure 10
0100
0100
0001
0100
1000
0000
1001
0000
,  // measure 11
0100
0100
0010
0001
1000
0000
1001
0000
,  // measure 12
0001
0010
0100
0010
0001
0100
0100
0000
,  // measure 13
0001
0000
0010
0000
1000
1000
1000
0000
,  // measure 14
0010
1000
0001
0100
0001
1000
1000
0000
,  // measure 15
0001
0000
1000
0000
0001
0001
0001
0000
,  // measure 16
1000
0100
1000
0000
0100
0010
0001
0000
,  // measure 17
0001
0100
0001
0000
0100
0010
1000
0000
,  // measure 18
0010
0100
0010
0000
0100
0001
1000
0000
,  // measure 19
0001
0010
0100
1000
1000
0100
0010
0001
,  // measure 20
0001
0010
0001
0000
0010
0100
1000
0000
,  // measure 21
1000
0010
1000
0000
0010
0100
0001
0000
,  // measure 22
0100
0010
0100
0000
0010
1000
0001
0000
,  // measure 23
1000
0100
0010
0001
0001
0010
0100
1000
,  // measure 24
0001
0100
1000
0010
,  // measure 25
0001
0100
1000
0010
,  // measure 26
0001
0001
0001
0001
0001
0000
1001
0000
,  // measure 27
0100
0100
0100
0100
0100
0000
0110
0000
,  // measure 28
0010
0010
0010
0010
0010
0000
0110
0000
,  // measure 29
0001
0100
1000
0000
1000
0100
0001
0000
,  // measure 30
1000
1000
1000
1000
1000
0000
1001
0000
,  // measure 31
0010
0010
0010
0010
0010
0000
0110
0000
,  // measure 32
0100
0100
0100
0100
0100
0000
0110
0000
,  // measure 33
1000
0010
0001
0000
0001
0010
1000
0000
,  // measure 34
0010
0010
0010
0010
0010
0000
0110
0000
,  // measure 35
0001
0001
0001
0001
0001
0000
1001
0000
,  // measure 36
1000
1000
1000
1000
1000
0000
1001
0000
,  // measure 37
0010
0001
0100
0000
0100
0001
0010
0000
,  // measure 38
0011
0000
0000
0000
;

//---------------dance-single - ----------------
#NOTES:
     dance-single:
     :
     Beginner:
     2:
     0.090118,0.142203,0.149688,0.042768,0.000000,59.000000,45.000000,14.000000,4.000000,0.000000,0.000000,0.090118,0.142203,0.149688,0.042768,0.000000,59.000000,45.000000,14.000000,4.000000,0.000000,0.000000:
0000
0000
0000
0000
,
0000
0000
0000
0000
,
0000
0000
0000
0000
,
0000
0000
0000
0000
,
1000
0000
0000
0000
,
1001
0000
0000
0000
,
0001
0000
0000
0000
,
1001
0000
0000
0000
,
0100
0000
0100
0000
,
0010
0000
0010
0000
,
1000
0000
1000
0000
,
0001
0000
0001
0000
,
2000
0000
0000
3000
,
1000
0000
0000
0000
,
0002
0000
0000
0003
,
0001
0000
0000
0000
,
0200
0000
0000
0300
,
0100
0000
0000
0000
,
0020
0000
0000
0030
,
0010
0000
0000
0000
,
0110
0000
0000
0000
,
1000
0000
0000
0000
,
0110
0000
0000
0000
,
0001
0000
0000
0000
,
1000
0000
0000
0000
,
1000
0000
0000
0000
,
1001
0000
0000
0000
,
0110
0000
0000
0000
,
1001
0000
0000
0000
,
0100
0100
0100
0000
,
0110
0000
0000
0000
,
1001
0000
0000
0000
,
0110
0000
0000
0000
,
0010
0010
0010
0000
,
1001
0000
0000
0000
,
0110
0000
0000
0000
,
1001
0000
0000
0000
,
0100
0100
0100
0000
,
0110
0000
0000
0000
;

//---------------dance-single - ----------------
#NOTES:
     dance-single:
     :
     Easy:
     4:
     0.148160,0.182833,0.053460,0.256608,0.000000,97.000000,92.000000,5.000000,24.000000,0.000000,0.000000,0.148160,0.182833,0.053460,0.256608,0.000000,97.000000,92.000000,5.000000,24.000000,0.000000,0.000000:
// measure 0
0000
0000
0000
0000
,  // measure 1
0000
0000
0000
0000
,  // measure 2
1001
0000
0000
1000
,  // measure 3
1000
0000
0000
0000
,  // measure 4
1001
0000
0000
0001
,  // measure 5
0001
0000
0000
0000
,  // measure 6
0110
0000
0000
0100
,  // measure 7
0100
0000
0000
0000
,  // measure 8
0110
0000
0010
0000
,  // measure 9
0010
0010
0010
0000
,  // measure 10
0100
0000
0100
0000
,  // measure 11
0100
0100
0100
0000
,  // measure 12
0001
0000
0010
0000
,  // measure 13
0100
0000
0001
0000
,  // measure 14
0010
0000
1000
0000
,  // measure 15
0100
0000
0010
0000
,  // measure 16
1000
0000
1000
0000
,  // measure 17
1000
0001
0100
0000
,  // measure 18
0001
0000
0001
0000
,  // measure 19
0001
1000
0100
0000
,  // measure 20
0010
0000
0010
0000
,  // measure 21
0010
0100
1000
0000
,  // measure 22
0010
0000
0010
0000
,  // measure 23
0010
0100
0001
0000
,  // measure 24
0001
0001
0001
0001
,  // measure 25
1000
1000
1000
1000
,  // measure 26
2000
0010
0200
3300
,  // measure 27
2000
0001
0002
3003
,  // measure 28
0002
1000
2000
3003
,  // measure 29
0002
0100
2000
3003
,  // measure 30
0002
0100
0020
0033
,  // measure 31
0002
1000
2000
3003
,  // measure 32
2000
0001
0002
3003
,  // measure 33
2000
0010
0002
3003
,  // measure 34
2000
0010
0200
3300
,  // measure 35
2000
0001
0002
3003
,  // measure 36
0002
1000
2000
3003
,  // measure 37
0002
0100
2000
3003
,  // measure 38
1001
0000
0000
0000
;

//---------------dance-single - ----------------
#NOTES:
     dance-single:
     :
     Medium:
     7:
     0.248971,0.284407,0.106920,0.085536,0.000000,163.000000,153.000000,10.000000,8.000000,0.000000,0.000000,0.248971,0.284407,0.106920,0.085536,0.000000,163.000000,153.000000,10.000000,8.000000,0.000000,0.000000:
// measure 0
0000
0000
0000
0000
,  // measure 1
0000
0000
0000
0000
,  // measure 2
1010
0000
0000
0000
0000
0000
0000
1000
,  // measure 3
0010
0000
0000
0000
,  // measure 4
0110
0000
0000
0000
0000
0000
0000
0010
,  // measure 5
0100
0000
0000
0000
,  // measure 6
0101
0000
0000
0000
0000
0000
0000
0001
,  // measure 7
0100
0000
0000
0000
,  // measure 8
0002
0013
2000
3010
,  // measure 9
0002
0103
2000
3100
,  // measure 10
0002
0013
2000
3010
,  // measure 11
0002
0103
2000
3100
,  // measure 12
1000
0100
1000
0000
0100
0100
0100
0000
,  // measure 13
0010
0001
1000
0010
,  // measure 14
0100
0000
0001
0000
0100
0001
0100
0000
,  // measure 15
0010
1000
0100
0010
,  // measure 16
0100
1000
0100
0000
0010
0001
0010
0000
,  // measure 17
0001
0101
1000
1100
,  // measure 18
1000
0001
1000
0000
0001
1000
0001
0000
,  // measure 19
1000
1010
0001
0011
,  // measure 20
0010
0000
0100
0000
1000
0001
0100
0000
,  // measure 21
0010
0000
0100
0000
0010
0100
0010
0000
,  // measure 22
0010
0000
0100
0000
0001
1000
0100
0000
,  // measure 23
0010
0000
0100
0000
0010
0100
1000
0000
,  // measure 24
1000
0001
1000
0001
,  // measure 25
1000
0001
1000
0001
1000
0001
1000
0000
,  // measure 26
0010
0100
0010
0100
0010
0000
0000
0000
,  // measure 27
0100
0010
0100
0010
0100
0000
0000
0000
,  // measure 28
0010
0100
0010
0100
0010
0000
0000
0000
,  // measure 29
0001
0010
0100
1000
,  // measure 30
0001
1000
0001
1000
0001
0000
0000
0000
,  // measure 31
1000
0001
1000
0001
1000
0000
0000
0000
,  // measure 32
0001
1000
0001
1000
0001
0000
0000
0000
,  // measure 33
0001
0100
1000
0100
,  // measure 34
1000
0100
1000
0100
1000
0000
0000
0000
,  // measure 35
0100
1000
0100
1000
0100
0000
0000
0000
,  // measure 36
1000
0100
1000
0100
1000
0000
0000
0000
,  // measure 37
0001
0101
1000
1100
,  // measure 38
1001
0000
0000
0000
;
