#TITLE:Shut Me Up;
#SUBTITLE:;
#ARTIST:MINDLESS SELF INDULGENCE;
#TITLETRANSLIT:;
#SUBTITLETRANSLIT:;
#ARTISTTRANSLIT:;
#CREDIT:Chewi☆;
#BANNER:Shut Me Up.png;
#BACKGROUND:Shut Me Up-bg.png;
#METERTYPE:DDR X;
#MENUCOLOR:;
#LYRICSPATH:;
#CDTITLE:;
#MUSIC:Shut Me Up.mp3;
#OFFSET:-0.436;
#SAMPLESTART:33.527;
#SAMPLELENGTH:15.000;
#SELECTABLE:YES;
#DISPLAYBPM:87.000:348.000;
#BPMS:0.000=87.010,46.000=174.020,201.000=348.040;
#STOPS:14.000=0.345
,14.500=0.345
,45.000=0.345
,45.500=0.345
,138.000=0.345
,139.000=0.345
,200.000=0.345
,201.000=0.517
;
#BGCHANGES:;

//---------------dance-single - Chewi----------------
#NOTES:
     dance-single:
     Chewi:
     Beginner:
     3:
     0.145,0.197,0.107,0.059,0.000:
0000
0000
0000
0000
,
0000
0000
0000
0000
,
0000
0000
0000
0000
,
0000
0000
0000
0010
,
0000
0100
0000
0010
,
0000
0100
0000
0001
,
0000
1000
0000
0001
,
0000
1000
0000
0010
,
0000
0001
0000
0100
,
0000
1000
0000
0010
,
0000
1000
0000
0100
,
0000
0001
0001
0000
,
0000
0000
1000
0000
,
0000
0000
0010
0000
,
0000
0000
0100
0000
,
0100
0100
0100
0000
,
0000
0000
0010
0000
,
0000
0000
1000
0000
,
0000
0000
0001
0000
,
0001
0000
0001
0000
,
0000
0000
0010
0000
,
0000
0000
0100
0000
,
0000
0000
1000
0000
,
1000
1000
1000
0000
,
0000
0000
0001
0000
,
0000
0000
0100
0000
,
0000
0000
0010
0000
,
0110
0000
0020
0000
,
0000
0030
0010
0010
,
0010
0000
0200
0000
,
0000
0300
0100
0100
,
0100
0000
2000
0000
,
0000
3000
1000
1000
,
1000
0000
0002
0000
,
0000
0003
0001
0001
,
1001
0000
0000
0000
,
0100
0000
0000
0000
,
0010
0000
0010
0000
,
0010
0000
0000
0000
,
0110
0000
0000
0000
,
1000
0000
0000
0000
,
0001
0000
0001
0000
,
0001
0000
0000
0000
,
2000
0000
0000
3000
,
1000
0000
0001
0000
,
1001
0000
0000
0000
,
0110
0000
0000
0000
,
0002
0000
0000
0003
,
0001
0000
1000
0000
,
1001
0000
0000
0000
,
0110
0010
0010
0000
,
0000
0000
0000
0000
,
0000
0000
1000
0000
,
0000
0000
0000
0000
,
0000
0000
0001
0000
,
0000
0000
0000
0000
,
0000
0000
0010
0000
,
0000
0000
0010
0000
,
0010
0000
0010
0000
,
0000
0000
0000
0000
,
0000
0000
0100
0000
,
0000
0000
0000
0000
,
0000
0000
0100
0000
,
0000
0000
0000
0000
,
0000
0000
1001
0000
,
0000
0000
1001
0000
,
0000
0000
1001
0000
,
0000
0000
0110
0000
;

//---------------dance-single - Chewi----------------
#NOTES:
     dance-single:
     Chewi:
     Easy:
     6:
     0.308,0.395,0.254,0.098,0.000:
0000
0000
0000
0000
,
0000
0000
0000
0000
,
0000
0000
0000
0000
,
0000
0000
0000
1000
,
1100
0100
0100
0001
,
0101
0001
0001
0100
,
0110
0100
0100
0010
,
0110
0010
0010
0010
,
1000
0100
0001
0020
,
0000
0002
0033
0010
,
1000
0100
0001
0010
,
0100
0000
0110
1001
1000
0000
0010
0000
,
0100
0000
0001
0100
,
1000
0100
1000
0100
,
0010
0000
1000
0100
,
0001
0100
0001
0010
,
0100
0000
1000
0010
,
0001
0010
1000
0010
,
0100
0000
1000
0010
,
0001
0010
0001
0100
,
0010
0000
1000
0010
,
0001
0010
0001
0010
,
0100
0000
0001
0010
,
1000
0010
1000
0100
,
0010
0000
0001
0100
,
1000
0100
0001
0100
,
0010
0000
0001
0100
,
1000
0100
2002
0000
,
0000
3003
1000
0010
,
0001
0100
0220
0000
,
0000
0330
0100
0001
,
0010
1000
2002
0000
,
0000
3003
1000
0100
,
0001
0010
0220
0000
,
0000
0330
1001
1010
,
1000
0010
0100
0001
,
1000
0010
0100
0001
,
1000
0100
0010
0001
,
1000
0100
0010
0001
,
0001
0010
0100
1000
,
0001
0010
0100
1000
,
0001
0100
0010
1000
,
0001
0100
0010
1000
,
1001
0000
0110
0000
,
0001
1000
0010
0000
,
0110
0000
1001
0000
,
1000
0001
0100
0000
,
1001
0000
0110
0000
,
0010
1000
0001
0000
,
1001
0000
0110
0000
,
0011
1100
0100
0000
,
0010
0000
0001
0000
,
0000
0000
0001
0000
,
0100
0000
1000
0000
,
0010
0000
0001
0000
,
0010
0000
1000
0000
,
0000
0000
0001
0000
,
1000
0000
1001
0000
,
1001
0000
1000
0000
,
0100
0000
0001
0000
,
0000
0000
0001
0000
,
0010
0000
1000
0000
,
0010
0000
0001
0000
,
0100
0000
1000
0000
,
0000
0000
1000
0000
,
0001
0000
1000
0000
,
0001
0000
1001
0000
,
0000
0000
1010
0000
;

//---------------dance-single - Chewi----------------
#NOTES:
     dance-single:
     Chewi:
     Medium:
     8:
     0.355,0.428,0.410,0.000,0.000:
0000
0000
0000
0000
,
0000
0000
0000
0000
,
0000
0000
0000
0000
,
0000
0000
0000
0000
0000
0000
1000
1000
,
1000
0000
0100
0100
0100
0000
0010
0010
,
0010
0000
0001
0001
0001
0000
0001
0001
,
0001
0000
0100
0100
0100
0000
0010
0010
,
0010
0000
1000
1000
1000
0000
1000
0000
,
1100
0001
0010
1000
,
0010
0001
0100
0001
,
0101
1000
0010
0001
,
0100
0000
1100
0101
1000
0000
0100
0000
,
0010
0000
0001
1000
0000
0000
0010
0000
,
0100
0000
0001
0100
0000
0000
0000
0000
,
0000
0000
0010
1000
,
1001
0110
0010
0001
,
0010
0000
0100
1000
0000
0000
1000
0000
,
0010
0000
0100
0001
0000
0000
0100
0000
,
0010
1000
1001
0000
,
0110
0000
0010
0001
,
0010
0000
1000
0010
0000
0000
1000
0000
,
0100
0000
0001
0100
0000
0000
0100
0000
,
0010
1000
0001
0010
,
0110
1001
1000
0010
,
0100
0000
0001
0100
0000
0000
0010
0000
,
1000
0000
0001
1000
0000
0000
0100
0000
,
0010
0001
1001
0000
,
0110
0000
1010
0000
,
0000
0000
1100
0101
,
1100
0101
1001
0000
,
0000
0000
0110
1010
,
0011
0110
1001
0000
,
0000
0000
1001
1010
,
0101
1001
1100
0000
,
0000
0000
0000
0000
0011
0100
1010
0000
,
0100
0010
1000
0000
,
0001
0010
0100
0000
1000
0000
0000
0000
,
1000
1100
0001
0101
,
0010
0100
0001
1000
,
0001
0010
0100
0000
,
1000
0100
0010
0000
0011
0000
0000
0000
,
0001
1000
0010
0000
0100
0000
0001
0000
,
0100
0100
0010
0010
,
1010
0100
0011
0100
,
0010
0100
0001
1000
,
0100
0000
0010
0100
0010
0000
0100
0000
,
0000
0000
0010
0100
0010
0000
0100
0000
,
0010
0001
0100
0010
,
0001
0100
1000
0010
,
0100
0000
1000
0000
0010
0100
0010
0000
,
0110
0010
1000
0000
0010
0000
0000
0000
,
0100
0000
0001
0000
,
0100
0010
0000
0000
,
1000
0000
0001
0000
,
0010
0100
0000
0000
,
1000
0000
0100
0000
,
0010
0000
0001
0000
,
0100
0000
1010
0000
,
0101
0000
0100
0000
,
0010
0000
1000
0000
,
0001
0010
0000
0000
,
0100
0000
1000
0000
,
0100
0010
0000
0000
,
0001
0000
1000
0000
,
0010
0000
0101
0000
,
0000
0000
1010
0000
,
0000
0000
1001
0000
,
0000
0010
0110
0000
;

//---------------dance-single - Chewi----------------
#NOTES:
     dance-single:
     Chewi:
     Hard:
     13:
     0.655,0.921,0.380,0.078,0.137:
0000
0000
0000
0000
,
0000
0000
0000
0000
,
0000
0000
0000
0000
,
0000
0000
0000
0000
0000
0000
0000
0000
0000
0000
0000
1000
1100
0000
0000
0001
,
0101
0000
0000
0100
0110
0000
0000
0010
0110
0000
0000
0000
0010
1000
0100
1000
,
0010
0000
0100
0000
0010
0001
0100
0001
0010
0000
0100
1000
1010
0000
0000
0001
,
0011
0000
0000
1000
1100
0000
0000
0001
0101
0000
0000
0100
0001
0010
0001
0100
,
0001
0000
0010
0000
0100
1000
0010
1000
0100
1000
0010
0000
0100
0000
0110
0000
,
1000
0000
1001
0000
0010
0000
0110
0000
0010
0000
0011
0000
0101
0000
0001
0100
,
0010
1000
0001
0100
1000
0000
1000
0100
0010
0001
1000
0100
0010
0000
0011
0000
,
0001
0101
0100
1100
1000
1010
0010
0110
,
1000
0000
1001
0000
0011
0010
1100
0000
0010
0000
0100
0000
0001
0000
0100
0000
,
0010
1000
0001
0000
1000
0100
0010
0001
,
1000
0100
0010
0000
0001
0010
0100
1000
,
0010
0100
0001
0000
0100
0010
1000
0001
,
1001
0000
0110
0000
1000
0010
0100
0001
,
0100
0010
1000
0000
0001
0010
0100
1000
,
0100
0010
0001
0000
0100
0010
0100
0001
,
0010
0100
1000
0010
0101
0000
0000
0010
,
1100
0000
0000
0010
0001
0010
0100
1000
,
0010
0100
0001
0000
0100
0010
1000
0001
,
0010
0100
1000
0000
1000
0100
0010
0100
,
1000
0010
0100
0001
0100
0010
0100
0001
,
0101
0000
0011
0000
0001
0010
0100
0010
,
0001
0100
0010
0000
0010
0100
0010
0100
,
0001
0010
0100
0000
1000
0100
0010
0100
,
1000
0010
0100
0001
0101
0000
0010
0100
,
0010
0000
1000
0100
0010
0100
0001
0100
,
0010
0100
0001
1000
1002
0000
0010
0000
,
0103
0000
1000
0010
0100
0001
0010
0010
,
0001
0010
0001
0010
2020
3030
0202
0303
,
0022
0033
0001
0010
0100
1000
0100
0000
,
0001
0100
1000
0010
0002
0000
1000
0000
,
0103
0001
0100
0010
1000
0001
0010
0000
,
0100
0000
1000
0000
0010
0000
0100
0000
0101
0000
0010
0100
1000
0000
0000
0000
,
1000
0100
0010
0001
1000
0010
0100
0000
,
0001
0100
0010
1000
0001
0010
0100
0000
,
1000
0100
0001
0100
1000
0010
0001
0010
,
1000
0100
0010
1000
0100
0010
0001
0010
,
0100
1000
0010
0100
0001
0010
0100
0000
,
0010
0001
0100
0010
1000
0100
0010
0000
,
0100
1000
0010
0100
0010
1000
0100
0001
,
0010
1000
0100
0010
0001
0010
0100
1000
,
0001
1000
0001
1000
0010
0100
0010
0100
,
0001
0100
0001
0100
0010
0100
0010
0100
,
0010
1000
0010
1000
0010
1000
0100
1000
,
0010
1000
0100
0010
0001
0100
0001
0010
,
0100
0010
0100
0010
0100
0010
0100
0010
,
0001
1000
0001
1000
0001
1000
0001
1000
,
0001
0100
0010
1000
0001
0100
0010
1000
,
1010
0001
0010
0100
1000
0000
0000
0000
0100
0000
0000
0000
0010
0000
0000
0000
,
0001
0010
0100
1000
,
0010
0100
0001
0100
,
0010
1000
0001
0010
,
0100
1000
0001
1000
,
0010
0100
0001
0100
,
0010
1000
0001
0010
,
0100
0010
0110
0000
,
0110
0000
0010
0001
,
0010
0100
1000
0010
,
0100
0001
0100
0010
,
1000
0001
0010
0100
,
1000
0010
0100
0001
,
0100
0010
1000
0001
,
0010
0100
0110
0000
,
0001
1000
1010
0000
,
0100
0001
0101
0000
,
0000
0000
0100
0010
0100
0000
0000
0000
;

//---------------dance-double - Chewi----------------
#NOTES:
     dance-double:
     Chewi:
     Hard:
     13:
     0.628,0.954,0.458,0.078,0.185: // measure 1
00000000
00000000
00000000
00000000
,  // measure 2
00000000
00000000
00000000
00000000
,  // measure 3
00000000
00000000
00000000
00000000
,  // measure 4
00000000
00000000
00000000
00000000
00000000
00000000
00000000
00000000
00000000
00000000
00000000
10000000
11000000
00000000
00000000
00010000
,  // measure 5
01010000
00000000
00000000
01000000
01100000
00000000
00000000
00100000
01100000
00000000
00000000
00000000
01000000
00010000
00100000
00001000
,  // measure 6
00010000
00000000
00000100
00000000
00001000
00000010
00000100
00000001
00000010
00000100
00001000
00000010
00001010
00000000
00000000
00000010
,  // measure 7
00000011
00000000
00000000
00000010
00000110
00000000
00000000
00000100
00000110
00000000
00000000
00000010
00001000
00000100
00010000
00001000
,  // measure 8
00100000
00010000
01000000
00100000
10000000
00010000
00100000
01000000
10000000
00100000
01000000
00010000
01000000
00000000
00100000
00000000
,  // measure 9
10000000
00000000
00010000
00000000
00110000
00000000
11000000
00000000
01010000
00000000
10100000
00000000
10010000
00000000
10000000
01000000
,  // measure 10
00100000
00010000
01000000
00010000
00100000
00001000
00010000
00001000
00000001
00000100
00000010
00000100
00000010
00000000
00001000
00000000
,  // measure 11
00000001
00000000
00000100
00000010
00001000
00000000
00000001
00000000
00000010
00000100
00001000
00000010
00000100
00000000
00000010
00000000
,  // measure 12
00001000
00000100
00010000
00001000
00101000
00001000
00010000
00000000
00001000
00000000
00010000
00000000
00100000
00000000
00000000
00000000
,  // measure 13
01000000
00000000
00100000
00000000
10000000
01000000
00100000
00010000
,  // measure 14
10000000
01000000
00100000
00000000
00010000
01000000
00100000
01000000
,  // measure 15
00010000
00100000
01000000
10000000
00100000
01000000
00010000
00100000
,  // measure 16
00110000
00000000
01010000
00000000
00100000
00010000
01000000
00010000
,  // measure 17
00100000
00001000
00010000
00000100
00001000
00000001
00000100
00000010
,  // measure 18
00001000
00000001
00000010
00000100
00001000
00000010
00000100
00000001
,  // measure 19
00000100
00000010
00001000
00000001
00001001
00001001
00000000
00000000
,  // measure 20
00001010
00001010
00000000
00000000
00000010
00001000
00000100
00001000
,  // measure 21
00000010
00001000
00000100
00010000
00001000
00100000
00010000
01000000
,  // measure 22
00100000
10000000
00010000
00100000
01000000
10000000
01000000
00100000
,  // measure 23
00010000
01000000
00100000
10000000
00010000
00100000
01000000
00100000
,  // measure 24
00110000
00000000
00110000
00000000
00100000
00010000
00001000
00000010
,  // measure 25
00000001
00000010
00001000
00000010
00000001
00000010
00000100
00001000
,  // measure 26
00000010
00000001
00000100
00000010
00001000
00000001
00000010
00000100
,  // measure 27
00001000
00000010
00000100
00000001
00000101
00000000
00000010
00001000
,  // measure 28
00001100
00000000
00000100
00010000
00022000
00000000
00000000
00000000
,  // measure 29
00000000
00033000
00011000
01010000
,  // measure 30
11000000
01010000
20020000
00000000
,  // measure 31
00000000
00000000
30030000
00000000
10000000
00100000
01000000
00010000
,  // measure 32
00100000
01000000
10000000
00000000
00220000
00000000
00000000
00000000
,  // measure 33
00000000
00330000
00110000
00011000
,  // measure 34
00001010
00000110
00000220
00000000
,  // measure 35
00000000
00000000
00000000
00000000
00000330
00000000
00000000
00000000
00001010
00000000
00000001
00000100
00001010
00000000
00000000
00000000
,  // measure 36
00000001
00000010
00000100
00001000
00000010
00000100
00000001
00000000
,  // measure 37
00000001
00000100
00000010
00001000
00000100
00010000
00001000
00000000
,  // measure 38
00001000
00100000
00010000
01000000
00100000
10000000
00010000
00000000
,  // measure 39
10000000
01000000
00100000
00010000
10000000
01000000
00100000
00000000
,  // measure 40
00010000
01000000
00100000
01000000
00010000
00100000
01000000
00000000
,  // measure 41
00100000
00010000
01000000
00010000
00100000
00001000
00010000
00000000
,  // measure 42
00010000
00001000
00000010
00000100
00000001
00000010
00000100
00000000
,  // measure 43
00001000
00000100
00000010
00000001
00000100
00000010
00001000
00000001
,  // measure 44
00001000
00001001
00000001
00001001
,  // measure 45
00000110
00001010
00000101
00000011
,  // measure 46
00001100
00000000
00000001
00000010
00000100
00001000
00000010
00000100
,  // measure 47
00000001
00000000
00000010
00000100
00000010
00001000
00000100
00010000
,  // measure 48
00001000
00100000
00010000
01000000
10000000
00100000
00010000
00100000
,  // measure 49
10000000
01000000
00100000
00010000
10000000
01000000
00100000
00010000
,  // measure 50
01000000
00100000
01000000
00010000
00100000
01000000
10000000
00100000
,  // measure 51
10000000
00100000
01000000
00010000
10000000
00000000
00000000
00000000
10000000
00000000
00000000
00000000
01000000
00000000
00000000
00000000
,  // measure 52
00100000
00010000
01000000
00100000
,  // measure 53
01000000
00000000
00010000
00100000
,  // measure 54
00001000
00010000
00000100
00001000
,  // measure 55
00000001
00000000
00000100
00000010
,  // measure 56
00001000
00000001
00000010
00000100
,  // measure 57
00001000
00000010
00000100
00000001
,  // measure 58
00000100
00000010
00001010
00000000
,  // measure 59
00000011
00000000
00000001
00000010
,  // measure 60
00000100
00001000
00000010
00000100
,  // measure 61
00000001
00000000
00000001
00000100
,  // measure 62
00000010
00001000
00000100
00010000
,  // measure 63
00001000
00000000
00001000
00100000
,  // measure 64
00010000
01000000
00100000
10000000
,  // measure 65
00010000
00100000
01000000
01000000
,  // measure 66
00100000
00000000
01000000
01000000
,  // measure 67
00100000
00000000
00010000
10000000
,  // measure 68
00100000
00000000
01000000
00010000
01000000
00000000
00000000
00000000
;

//---------------dance-double - Chewi----------------
#NOTES:
     dance-double:
     Chewi:
     Medium:
     8:
     0.357,0.461,0.176,0.078,0.000:
00000000
00000000
00000000
00000000
,
00000000
00000000
00000000
00000000
,
00000000
00000000
00000000
00000000
,
00000000
00000000
00000000
00000000
00000000
00000000
10000000
10000000
,
10000000
00000000
01000000
01000000
01000000
00000000
00100000
00100000
,
00100000
00000000
00010000
00010000
00010000
00000000
00001000
00001000
,
00001000
00000000
00000010
00000010
00000010
00000000
00000001
00000001
,
00000001
00000000
00000100
00000100
00000100
00000000
00000010
00000010
,
00000110
00000010
00001000
00001000
,
00010000
00000000
01000000
00000000
10000000
00000000
01000000
01000000
,
01100000
00100000
10000000
01000000
,
00010000
00000000
00110000
00011000
00010000
00000000
00001000
00000000
,
00000010
00000000
00000100
00000001
,
00000010
00000000
00000100
00001000
,
00000010
00000000
00000100
00000000
00000001
00001000
00000001
00000000
,
00001000
00000001
00001000
00000010
,
00000100
00000100
00000010
00001000
,
00000100
00000100
00010000
01000000
,
10000000
00000000
00100000
00000000
00010000
10000000
00010000
00000000
,
10000000
00010000
10000000
00000000
00100000
00000000
01000000
00000000
,
00010000
00100000
01000000
10000000
,
00100000
00000000
01000000
00000000
00010000
00100000
00010000
00000000
,
00100000
00001000
00100000
00000000
00001000
00000000
00010000
00000000
,
00011000
00001010
00000010
00000100
,
00000001
00000100
00000001
00000000
00000100
00000000
00000010
00000000
,
00001000
00000001
00001000
00000000
00000001
00000000
00000010
00000000
,
00000100
00001000
00000100
00000000
00000011
00000000
00000000
00000000
,
00000101
00000000
00002020
00000000
,
00000000
00003030
00000010
00001000
,
00010000
01000000
20020000
00000000
,
00000000
00000000
30030000
00000000
00010000
10000000
00010000
10000000
,
00010000
00000000
22000000
00000000
,
00000000
33000000
10000000
01000000
,
00100000
00010000
00002200
00000000
,
00000000
00003300
00011000
01010000
,
01000000
00000000
00010000
00100000
00010000
00000000
00000000
00000000
,
01000000
00000000
10000000
00100000
10000000
00000000
00000000
00000000
,
00010000
00100000
00001000
00000010
,
00000001
00000100
00000010
00001000
,
00000001
00000000
00001000
00000001
00001000
00000000
00000000
00000000
,
00000001
00000000
00001000
00000001
00001000
00000000
00000000
00000000
,
00000001
00000100
00000010
00001000
,
00000100
00010000
00001000
00100000
,
01000000
00000000
00100000
00000000
00010000
10000000
00010000
00000000
,
01000000
00000000
00100000
00000000
10000000
00010000
10000000
00000000
,
00100000
00000000
01000000
00000000
10000000
01000000
10000000
00000000
,
00100000
00000000
01000000
00000000
00010000
01000000
00010000
00000000
,
01000000
00100000
10000000
00010000
,
00100000
01000000
00100000
00010000
,
01010000
00000000
01000000
00100000
10000000
00010000
00100000
01000000
,
00100000
00010000
00100000
00000000
,
00010000
00000000
00001000
00000000
,
00010000
00000000
00001000
00000000
,
00000010
00000000
00001000
00000000
,
00000010
00000000
00000100
00000000
,
00000001
00000000
00000100
00000000
,
00000010
00000000
00001000
00000000
,
00000001
00000000
00001001
00000000
,
00000000
00000000
00000001
00000000
,
00000100
00000000
00000010
00000000
,
00001000
00000000
00000001
00000000
,
00000100
00000000
00000010
00000000
,
00001000
00000000
00000100
00000000
,
00010000
00000000
01000000
00000000
,
10000000
00000000
00100000
00000000
,
00000000
00000000
01100000
00000000
,
00000000
00000000
10010000
00000000
,
00000000
00010000
10000000
00000000
;

//---------------dance-double - Chewi----------------
#NOTES:
     dance-double:
     Chewi:
     Easy:
     6:
     0.293,0.395,0.185,0.059,0.000:
00000000
00000000
00000000
00000000
,
00000000
00000000
00000000
00000000
,
00000000
00000000
00000000
00000000
,
00000000
00000000
00000000
10000000
,
10010000
00010000
10000000
00010000
,
00011000
00001000
00000001
00001000
,
00001001
00000001
00001000
00010000
,
00011000
00001000
00010000
01000000
,
00100000
10000000
00010000
00100000
,
01000000
00100000
00110000
01000000
,
00010000
00001000
00000010
00000001
,
00000100
00000000
00001000
00001100
00000100
00000000
00001000
00000000
,
00000010
00000000
00000100
00000100
,
00000010
00000000
00001000
00001000
,
00000100
00000000
00010000
00010000
,
00001000
00100000
01000000
10000000
,
00100000
00000000
00100000
00010000
,
01000000
00000000
01000000
00100000
,
01000000
00000000
10010000
00000000
,
01100000
00000000
10010000
00000000
,
00100000
00000000
00100000
00010000
,
00001000
00000000
00001000
00000010
,
00000001
00000000
00000001
00000100
,
00001000
00000010
00000100
00000010
,
00001000
00000000
00000100
00001000
,
00000010
00000000
00000010
00001000
,
00010000
00000000
01010000
00000000
,
11000000
00000000
20020000
00000000
,
00000000
30030000
00100000
10000000
,
01000000
00010000
02200000
00000000
,
00000000
03300000
00100000
00010000
,
00001000
00000100
00000002
00000000
,
00000000
00000003
00000010
00001000
,
00000010
00000001
00000200
00000000
,
00000000
00000000
00000310
00001010
,
00000010
00001000
00010000
01000000
,
10000000
01000000
00010000
01000000
,
10000000
00100000
01000000
00010000
,
10000000
01000000
00100000
00010000
,
00001000
00000010
00000001
00000100
,
00001000
00000100
00000001
00000010
,
00001000
00000001
00001000
00000001
,
00000010
00000100
00000010
00000100
,
00000010
00001000
00010000
01000000
,
10000000
00100000
00010000
00100000
,
10000000
00100000
01000000
00010000
,
00000000
00010000
00100000
01000000
,
10000000
01000000
00100000
00010000
,
00001000
00000100
00000010
00000001
,
00000100
00000010
00001000
00000001
,
00001001
00000101
00000001
00000000
,
00000100
00000000
00000010
00000000
,
00000000
00000000
00000010
00000000
,
00001000
00000000
00000100
00000000
,
00000000
00000000
00000100
00000000
,
00010000
00000000
00001000
00000000
,
00000000
00000000
00001000
00000000
,
00100000
00000000
01000000
00000000
,
01000000
00000000
00100000
00000000
,
00010000
00000000
01000000
00000000
,
00000000
00000000
00100000
00000000
,
10000000
00000000
01000000
00000000
,
00000000
00000000
00100000
00000000
,
01000000
00000000
00100000
00000000
,
01000000
00000000
01100000
00000000
,
00000000
00000000
10010000
00000000
,
00000000
00000000
01010000
00000000
,
00000000
00000000
01000000
00000000
;
