#TITLE:Shiny World;
#SUBTITLE:;
#ARTIST:CAPACITY GATE;
#TITLETRANSLIT:;
#SUBTITLETRANSLIT:;
#ARTISTTRANSLIT:;
#GENRE:;
#CREDIT:;
#MENUCOLOR:;
#METERTYPE:DDR;
#BANNER:Shiny World.png;
#BACKGROUND:Shiny World-bg.png;
#LYRICSPATH:;
#CDTITLE:./CDTITLES/DanceDanceRevolution X2.png;
#MUSIC:Shiny World.mp3;
#OFFSET:2.348;
#SAMPLESTART:16.840;
#SAMPLELENGTH:15.000;
#SELECTABLE:YES;
#LISTSORT:;
#DISPLAYBPM:25.000:100.000;
#BPMS:0.000=25.000,4.000=25.000,8.000=100.000;
#STOPS:100.000=2.080
;
#BGCHANGES:;
#ATTACKS:;

//---------------dance-single - Chewi----------------
#NOTES:
     dance-single:
     Chewi:
     Beginner:
     1:
     0.093,0.100,0.010,0.041,0.000:
0000
0000
0000
0000
,
0000
0000
0000
0000
,
1000
0000
1000
0000
,
1000
0000
1000
0000
,
0002
0000
0000
0000
,
0000
0003
0001
0001
,
0100
0000
0100
0000
,
0100
0000
0100
0000
,
0020
0000
0000
0000
,
0000
0030
0010
0010
,
1000
0000
0100
0000
,
0010
0000
0001
0000
,
0100
0000
0010
0000
,
1000
0000
0001
0000
,
1000
0000
0100
0000
,
0010
0000
0001
0000
,
1000
0000
0010
0000
,
0100
0000
0001
0000
,
0100
0000
0010
0000
,
0010
0000
0100
0000
,
1000
0000
0001
0000
,
0100
0000
0010
0000
,
0010
0000
0100
0000
,
0100
0000
0010
0000
,
1000
0000
0001
0000
,
1001
0010
0000
0000
0000
0010
0000
0000
,
0000
0010
0000
0000
0000
0010
0000
0000
,
0000
0002
0000
0000
0000
0000
0000
0000
,
0000
0000
0000
0003
0000
0001
0000
0001
,
0000
1000
0000
0000
0000
1000
0000
0000
,
0000
1000
0000
0000
0000
1000
0000
0000
,
0000
0020
0000
0000
0000
0000
0000
0000
,
0000
0000
0000
0030
0000
0010
0000
0010
;

//---------------dance-single - Chewi----------------
#NOTES:
     dance-single:
     Chewi:
     Easy:
     3:
     0.164,0.151,0.031,0.163,0.000:
0000
0000
0000
0000
,
0000
0000
0000
0000
,
1000
1000
1000
1000
,
1000
1000
1000
1000
,
0001
0000
0000
0001
0000
0000
0001
0000
,
0000
0001
0000
0000
0001
0000
0001
0000
,
0100
0100
0100
0100
,
0100
0100
0100
0100
,
0010
0000
0000
0010
0000
0000
0010
0000
,
0000
0010
0000
0000
0010
0000
0010
0000
,
2000
0000
3200
0000
,
0320
0000
0032
0000
,
0203
0000
0320
0000
,
2030
0000
3002
0000
,
2003
0000
3200
0000
,
0320
0000
0032
0000
,
2003
0000
3020
0000
,
0230
0000
0302
0000
,
0103
1000
0010
0000
,
0010
0001
0100
0000
,
1000
0010
0001
0000
,
0100
1000
0010
0000
,
0010
1000
0100
0000
,
0100
0001
0010
0000
,
1000
0100
0001
0000
,
1001
0010
0000
0010
0000
0010
0000
0010
,
0000
0010
0000
0010
0000
0010
0000
0010
,
0000
0001
0000
0000
0001
0000
0000
0001
,
0000
0000
0001
0000
0000
0001
0000
0001
,
0000
1000
0000
1000
0000
1000
0000
1000
,
0000
1000
0000
1000
0000
1000
0000
1000
,
0000
0010
0000
0000
0010
0000
0000
0010
,
0000
0000
0010
0000
0000
1001
0000
1001
;

//---------------dance-single - Chewi----------------
#NOTES:
     dance-single:
     Chewi:
     Medium:
     7:
     0.253,0.218,0.051,0.204,0.000:
0000
0000
0000
0000
,
0000
0000
0000
0000
,
1000
0100
0010
0001
0000
0001
1000
0000
,
0001
0100
0010
1000
0000
1000
0001
0000
,
2000
0000
0000
3002
0000
0000
2003
0000
,
0000
3002
0000
0000
1003
1000
1000
1000
,
0001
0010
0100
1000
0000
1000
0100
0000
,
1000
0100
0010
0001
0000
0010
0001
0000
,
0002
0000
0000
2003
0000
0000
3002
0000
,
0000
2003
0000
0000
3010
0010
0010
0010
,
0100
0000
0100
0000
0100
0010
1000
0000
,
1000
1000
1000
1100
,
0100
0000
0100
0000
0100
0010
0001
0000
,
0001
0001
0001
1001
,
0001
0000
1000
0000
0010
0100
0010
0000
,
0100
0010
1000
1010
,
1000
0000
1000
0000
1000
0100
0010
0000
,
0001
0010
0100
1100
,
2000
0000
0010
0000
0100
0100
3100
0000
,
0002
0000
0100
0000
0010
0010
0013
0000
,
0010
0100
1000
0010
,
0100
0001
0010
1000
,
0200
0000
0001
0000
1000
1000
1300
0000
,
0020
0000
1000
0000
0100
0100
0130
0000
,
0100
0010
1000
0001
,
1001
0001
0010
0100
1000
0000
0100
1000
,
0000
1000
0010
0100
0001
0000
0100
0001
,
0000
0200
0000
0000
0320
0000
0000
0230
,
0000
0000
0320
0000
0000
1030
1000
1000
,
1000
1000
0100
0010
0001
0000
0010
0001
,
0000
0001
0100
0010
1000
0000
0010
1000
,
0000
0020
0000
0000
2030
0000
0000
3200
,
0000
0000
0302
0000
0000
0013
0010
0010
,
0010
0000
0000
0000
;

//---------------dance-single - Chewi----------------
#NOTES:
     dance-single:
     Chewi:
     Hard:
     11:
     0.447,0.419,0.112,0.000,0.356: // measure 1
0000
0000
0000
0000
,  // measure 2
0000
0000
0000
0000
,  // measure 3
1000
0000
0100
1000
0000
1000
0010
0000
0000
0000
0100
0000
0001
0000
0010
0000
,  // measure 4
0100
0000
0010
0001
0000
0001
0010
0000
0000
0000
0100
0000
1000
0000
0001
0000
,  // measure 5
1000
0100
1000
0100
1000
0000
0001
0100
0001
0100
0001
0000
1000
0010
1000
0010
,  // measure 6
1000
0000
0001
0010
0001
0010
0001
0000
0010
0000
0100
0000
1000
0000
0010
0000
,  // measure 7
1000
0000
0100
1000
0000
1000
0010
0000
0000
0000
0100
0000
0001
0000
0010
0000
,  // measure 8
0100
0000
0010
0001
0000
0001
0010
0000
0000
0000
0001
0000
0010
0000
0100
0000
,  // measure 9
1000
0001
1000
0001
1000
0000
0001
0100
0001
0100
0001
0000
0100
0010
0100
0010
,  // measure 10
0100
0000
0010
1000
0010
1000
0010
0000
1000
0000
1000
0000
0100
0010
0000
0000
,  // measure 11
0001
0010
0100
1000
0010
1010
0100
0101
,  // measure 12
0010
1000
0100
0010
0001
0011
0010
1100
,  // measure 13
0100
1000
0001
0100
0010
1010
1000
1001
,  // measure 14
0001
0010
0100
1000
0010
1000
0100
0001
,  // measure 15
0010
0100
0010
0001
0100
0110
0010
1010
,  // measure 16
1000
0010
0100
0001
1000
1100
0100
0110
,  // measure 17
0010
0100
1000
0001
0100
1000
0010
0001
,  // measure 18
0100
0000
0010
0100
0000
0010
0100
0000
0010
0000
1000
0000
0001
0010
0100
1000
,  // measure 19
0010
0000
1000
0100
0000
1000
0100
0000
0010
0000
0001
0000
0100
0000
0010
0000
,  // measure 20
0100
0000
0001
0100
0000
0001
0100
0000
0001
0000
0010
0000
0100
0000
1000
0000
,  // measure 21
0001
0000
1000
0100
0000
1000
0010
0000
1000
0000
0100
0000
0010
0000
0001
0000
,  // measure 22
1000
0000
0010
1000
0000
0001
0100
0000
0010
0000
0100
0000
0001
0000
1000
0000
,  // measure 23
0100
0000
0010
0001
0000
0100
0001
0000
0010
0000
0100
0000
1000
0000
0010
0000
,  // measure 24
1000
0000
0100
1000
0000
0010
1000
0000
0010
0000
0100
0000
0001
0000
1000
0000
,  // measure 25
0100
0000
0010
0001
0000
0001
0010
0000
0100
0000
1000
0010
0000
0010
1000
0000
,  // measure 26
1001
0000
0001
0000
1000
0100
0000
0100
1000
0000
0010
0000
0100
0000
0001
0000
,  // measure 27
0100
0000
0010
0000
1000
0100
0000
1000
0010
0000
1000
0000
0100
0000
0010
0000
,  // measure 28
0001
0000
0100
0001
0100
0001
0100
0000
0010
1000
0010
1000
0010
0000
1000
0001
,  // measure 29
1000
0001
1000
0000
0001
1000
0001
1000
0001
0000
0001
0000
0010
0000
0100
0000
,  // measure 30
1000
0000
0010
0000
1000
0100
0000
0100
1000
0000
0010
0000
0100
0000
0001
0000
,  // measure 31
0010
0000
0100
0000
0010
0001
0000
1000
0100
0000
0100
0000
1000
0000
0001
0000
,  // measure 32
0100
0000
0010
0100
0010
0100
0010
0000
0010
1000
0010
1000
0010
0000
1000
0001
,  // measure 33
1000
0001
1000
0000
0001
0100
0001
0100
0001
0000
0100
0000
0010
0000
1000
0001
;
