#VERSION:0.83;
#TITLE:Shine On Me;
#SUBTITLE:;
#ARTIST:大原櫻子;
#TITLETRANSLIT:;
#SUBTITLETRANSLIT:;
#ARTISTTRANSLIT:Sakurako Ohara;
#GENRE:Pop;
#ORIGIN:;
#CREDIT:chewi;
#BANNER:Shine On Me.png;
#BACKGROUND:Shine On Me-bg.png;
#PREVIEWVID:;
#JACKET:Shine On Me-jacket.png;
#CDIMAGE:;
#DISCIMAGE:;
#LYRICSPATH:;
#CDTITLE:cdtitle.png;
#MUSIC:Shine On Me.ogg;
#OFFSET:0.035758;
#SAMPLESTART:52.566002;
#SAMPLELENGTH:15.000000;
#SELECTABLE:YES;
#BPMS:0.000=113.000;
#STOPS:;
#DELAYS:;
#WARPS:;
#TIMESIGNATURES:0.000=4=4;
#TICKCOUNTS:0.000=4;
#COMBOS:0.000=1;
#SPEEDS:0.000=1.000=0.000=0;
#SCROLLS:0.000=1.000;
#FAKES:;
#LABELS:0.000=Song Start;
#BGCHANGES:0.000=Shine On Me.avi=1.000=1=0=1===CrossFade==,
196.000=Shine On Me-bg.png=1.000=1=0=1===CrossFade==,
99999=-nosongbg-=1.000=0=0=0 // don't automatically add -songbackground-
;
#KEYSOUNDS:;
#ATTACKS:
;

//---------------dance-single - ----------------
#NOTEDATA:;
#CHARTNAME:;
#STEPSTYPE:dance-single;
#DESCRIPTION:;
#CHARTSTYLE:;
#DIFFICULTY:Beginner;
#METER:2;
#RADARVALUES:0.082697,0.138789,0.075919,0.075919,0.000000,61.000000,53.000000,8.000000,8.000000,0.000000,0.000000,0.000000,0.000000,0.000000,0.082697,0.138789,0.075919,0.075919,0.000000,61.000000,53.000000,8.000000,8.000000,0.000000,0.000000,0.000000,0.000000,0.000000;
#CREDIT:;
#NOTES:
// measure 0
0000
0000
0000
0000
,  // measure 1
0000
0000
0000
0000
,  // measure 2
0000
0000
0000
0000
,  // measure 3
0000
0000
0000
0000
,  // measure 4
1000
0000
0000
0000
,  // measure 5
0001
0000
0000
0000
,  // measure 6
0100
0000
0000
0000
,  // measure 7
0010
0000
0000
0000
,  // measure 8
1000
0000
0000
0000
,  // measure 9
0001
0000
0000
0000
,  // measure 10
0010
0000
0000
0000
,  // measure 11
0100
0000
0000
0000
,  // measure 12
2000
0000
0000
3000
,  // measure 13
1000
0000
0000
0000
,  // measure 14
0002
0000
0000
0003
,  // measure 15
0001
0000
0000
0000
,  // measure 16
0200
0000
0000
0300
,  // measure 17
0100
0000
0000
0000
,  // measure 18
0020
0000
0000
0030
,  // measure 19
0010
0000
0000
0000
,  // measure 20
0110
0000
0000
0000
,  // measure 21
1000
0000
0000
0000
,  // measure 22
1001
0000
0000
0000
,  // measure 23
0001
0000
0000
0000
,  // measure 24
0110
0000
0000
0000
,  // measure 25
0100
0000
0100
0000
,  // measure 26
0100
0000
0000
0000
,  // measure 27
0010
0000
0010
0000
,  // measure 28
0010
0000
0000
0000
,  // measure 29
0001
0000
0001
0000
,  // measure 30
0001
0000
0000
0000
,  // measure 31
1000
0000
1000
0000
,  // measure 32
1000
0000
0000
0000
,  // measure 33
1001
0000
0000
0000
,  // measure 34
0110
0000
0000
0000
,  // measure 35
1001
0000
0000
0000
,  // measure 36
0110
0000
0000
0000
,  // measure 37
1000
0000
1000
0000
,  // measure 38
0001
0000
0001
0000
,  // measure 39
0010
0000
0010
0000
,  // measure 40
0110
0000
0000
0000
,  // measure 41
0020
0000
0000
0030
,  // measure 42
0010
0000
0000
0000
,  // measure 43
0002
0000
0000
0003
,  // measure 44
0001
0000
0000
0000
,  // measure 45
2000
0000
0000
3000
,  // measure 46
1000
0000
0000
0000
,  // measure 47
0020
0000
0000
0030
,  // measure 48
0010
0000
0000
0010
;

//---------------dance-single - ----------------
#NOTEDATA:;
#CHARTNAME:;
#STEPSTYPE:dance-single;
#DESCRIPTION:;
#CHARTSTYLE:;
#DIFFICULTY:Easy;
#METER:4;
#RADARVALUES:0.180307,0.231315,0.047449,0.037959,0.000000,133.000000,128.000000,5.000000,4.000000,0.000000,0.000000,0.000000,0.000000,0.000000,0.180307,0.231315,0.047449,0.037959,0.000000,133.000000,128.000000,5.000000,4.000000,0.000000,0.000000,0.000000,0.000000,0.000000;
#CREDIT:;
#NOTES:
0000
0000
0000
0000
,
0000
0000
0000
0000
,
0000
0000
0000
0000
,
0000
0000
0000
0000
,
1000
0100
0000
0100
,
0000
0100
0000
0100
,
0010
0001
0000
0001
,
0000
0001
0000
0001
,
1000
0001
0000
1000
,
0000
0001
0000
1000
,
0100
0010
0000
0100
,
0000
0010
0000
0100
,
0100
1000
0100
0000
,
1000
0010
0100
0001
,
0100
0001
0100
0000
,
0001
0010
0100
1000
,
0001
1000
0001
0000
,
1000
0001
0100
0010
,
1000
0010
1000
0000
,
0010
1000
0010
1000
,
2000
0000
0000
0000
,
3200
0000
0000
0000
,
0320
0000
0000
0000
,
0032
0000
0000
0000
,
1003
0000
0000
1000
,
1000
0001
1001
0000
,
1000
0010
0100
0001
,
1000
0000
0001
0000
,
1000
0100
0010
0001
,
0010
0000
0100
0000
,
0010
0100
1000
0001
,
1000
0000
0001
0000
,
1001
0000
0000
0000
,
0010
0100
0010
0100
,
0010
1000
0100
0001
,
0010
0100
0010
0100
,
0010
0001
0100
1000
,
0010
0000
0100
0000
,
0010
1000
0001
0010
,
0100
0000
1000
0000
,
1001
0000
0000
0000
,
1000
0001
1000
0001
,
1000
0100
0001
0000
,
0001
0100
1000
0000
,
1000
0100
0001
0000
,
0100
0010
0100
0010
,
0001
1000
0001
1000
,
0010
0100
0001
1000
,
1001
0000
0000
1001
;

//---------------dance-single - ----------------
#NOTEDATA:;
#CHARTNAME:;
#STEPSTYPE:dance-single;
#DESCRIPTION:;
#CHARTSTYLE:;
#DIFFICULTY:Medium;
#METER:7;
#RADARVALUES:0.260292,0.324671,0.075919,0.142347,0.061684,192.000000,184.000000,8.000000,15.000000,0.000000,0.000000,0.000000,0.000000,0.000000,0.260292,0.324671,0.075919,0.142347,0.061684,192.000000,184.000000,8.000000,15.000000,0.000000,0.000000,0.000000,0.000000,0.000000;
#CREDIT:;
#NOTES:
0000
0000
0000
0000
,
0000
0000
0000
0000
,
0000
0000
0000
0000
,
0000
0000
0000
0000
,
1000
0100
0000
0100
,
0010
0001
0000
0001
,
0100
0010
0000
0010
,
0100
0001
0000
0001
,
1000
0100
0000
0100
,
0010
0001
0000
0001
,
0010
0001
0000
0001
,
0100
1000
0010
0001
,
0100
0000
1000
0000
0100
0100
0100
0000
,
0010
1000
0001
1001
,
0001
0000
0010
0000
0100
0100
0100
0000
,
0010
0001
1000
0100
,
1000
0000
0001
0000
1000
1000
1000
0000
,
1000
0010
0100
0101
,
0100
0000
0010
0000
1000
1000
1000
0000
,
1000
0100
0010
0001
,
0022
0000
0000
0003
,
2000
0000
0000
0030
,
0200
0000
0000
3000
,
0002
0000
0000
0303
,
0001
0000
0000
0001
0000
0000
1000
0000
0000
1000
0000
0000
0001
0000
1000
0000
,
1000
1100
0001
0101
,
0200
0320
2030
3002
,
1003
1100
0001
0101
,
1000
0100
1000
0001
,
0100
0100
0100
0000
0010
0010
0010
0000
,
1000
0000
0001
0000
1000
0001
1000
0000
,
0100
0000
0010
0000
0100
0010
0100
0000
,
0100
0000
0000
0100
0000
0000
0010
0000
0000
0010
0000
0000
0001
0000
1000
0000
,
0001
0000
0000
0001
0000
0000
0001
0000
0000
0000
1000
0000
0000
1000
0000
0000
,
2000
0100
0010
3100
,
0010
0000
0000
0010
0000
0000
0010
0000
0000
0000
0100
0000
0000
0100
0000
0000
,
0200
0010
0001
0310
,
0010
1000
0001
0000
1000
0000
0000
0000
,
0010
0100
0001
0000
0100
0000
0000
0000
,
0010
1000
0001
0000
1000
0000
0000
0000
,
0001
0000
0000
0001
0000
0000
1000
0000
0000
1000
0000
0000
0001
0000
1000
0000
,
0002
0000
0010
0000
0010
0000
0010
0010
,
0020
0000
0000
0000
0000
0033
1000
0001
,
0100
0100
0010
0010
,
2000
0002
0000
0000
0000
0000
3003
0000
,
1000
0100
1000
0000
0001
0100
0001
0000
,
1000
0010
1000
0000
0001
0010
0001
0000
,
1000
0001
1000
0001
1000
0000
1001
0000
,
0001
0000
0000
0001
0000
0000
1000
0000
0000
1000
0000
0000
0001
1000
0001
0000
;

//---------------dance-single - ----------------
#NOTEDATA:;
#CHARTNAME:;
#STEPSTYPE:dance-single;
#DESCRIPTION:;
#CHARTSTYLE:;
#DIFFICULTY:Hard;
#METER:10;
#RADARVALUES:0.344345,0.417434,0.132858,0.246735,0.151837,254.000000,240.000000,14.000000,26.000000,0.000000,0.000000,4.000000,0.000000,0.000000,0.344345,0.417434,0.132858,0.246735,0.151837,254.000000,240.000000,14.000000,26.000000,0.000000,0.000000,4.000000,0.000000,0.000000;
#CREDIT:;
#NOTES:
0000
0000
0000
0000
,
0000
0000
0000
0000
,
0000
0000
0000
0000
,
0000
0000
0000
0000
,
0020
0001
0000
0100
,
0000
1000
0000
0130
,
0002
0010
0000
0100
,
0000
1000
0000
0013
,
0020
1000
0000
0100
,
0000
0001
0000
0130
,
2000
0001
0000
0010
,
0000
0100
0000
3010
,
1000
0000
0000
1000
0010
0000
0000
0000
1000
0000
0000
1000
0100
0000
0000
0000
,
0010
0010
0100
0100
1000
1000
0001
0001
,
0010
0000
0000
0010
1000
0000
0000
0000
0010
0000
0000
0010
0100
0000
0000
0000
,
0100
0100
1000
1000
0001
0001
0100
0100
,
0010
0000
0000
0010
0001
0000
0000
0000
0010
0000
0000
0010
0100
0000
0000
0000
,
0010
0010
0100
0100
0001
0001
1000
1000
,
0100
0000
0000
0100
0010
0000
0000
0000
0001
0000
0000
0001
1000
0000
0000
0000
,
1000
1000
0001
0001
0010
0010
0100
0100
,
0120
0100
1000
0100
,
0032
0010
1000
0013
,
0020
0100
0001
0130
,
0200
1000
0001
1300
,
1000
0001
0000
1000
0000
0000
0001
1000
0000
0001
0000
0000
0010
0000
1000
0000
,
1010
1010
0011
0011
,
1000
0010
0001
0000
1000
0100
0001
0000
,
0101
0101
1100
1100
,
1000
0100
0001
0000
1000
0010
0001
0000
,
0011
0000
1001
0000
0100
0010
0100
0000
,
0110
0000
1010
0000
1000
0001
0010
0000
,
0001
1000
0100
1000
1000
0001
0100
0001
,
1000
0001
0000
1000
0000
0000
0001
1000
0000
0001
0000
0000
1000
0001
1000
0000
,
0010
0000
0000
0010
0000
0000
0010
0000
0000
0000
0100
0000
0000
0100
0000
0000
,
0200
0320
2030
3002
,
1003
0000
0000
1000
0000
0000
1000
0000
0000
0000
0001
0000
0000
0001
0000
0000
,
0002
0023
2030
3200
,
0302
0000
0013
0001
0200
0000
0310
1000
,
0200
0320
0032
2003
,
3001
0100
0010
0000
0010
0100
0001
0000
,
1000
0001
0000
1000
0000
0000
0001
1000
0000
0001
0000
0000
1000
0001
1000
0000
,
0002
0000
0010
0000
0010
0000
0010
0010
,
0023
0000
1000
0000
0100
0000
0031
0001
,
0100
0001
0100
0001
0010
0100
0010
0100
,
2000
0000
0002
0000
0000
0000
0000
0000
0000
0000
3003
0000
1000
0001
1000
0000
,
0100
1000
0100
1000
0010
1000
0010
1000
,
0040
0430
0304
4003
,
3001
1000
0001
1000
0001
0000
1001
0000
,
1000
0001
0000
1000
0000
0000
0001
1000
0000
0001
0000
0000
1000
0001
1000
0000
;
