#TITLE:Shark in the Water (Static Revenger Remix);
#SUBTITLE:;
#ARTIST:V.V. Brown;
#TITLETRANSLIT:;
#SUBTITLETRANSLIT:;
#ARTISTTRANSLIT:;
#GENRE:;
#CREDIT:Chewi☆;
#MENUCOLOR:#FFFF00;
#METERTYPE:DDR X;
#BANNER:Shark in the Water (Static Revenger Remix).png;
#BACKGROUND:Shark in the Water (Static Revenger Remix)-bg.png;
#LYRICSPATH:;
#CDTITLE:;
#MUSIC:Shark in the Water (Static Revenger Remix).mp3;
#OFFSET:-0.078;
#SAMPLESTART:46.154;
#SAMPLELENGTH:15.000;
#SELECTABLE:YES;
#LISTSORT:;
#DISPLAYBPM:125.000;
#BPMS:0.000=125.000;
#STOPS:;
#BGCHANGES:;
#ATTACKS:;

//---------------dance-single - Chewi----------------
#NOTES:
     dance-single:
     Chewi:
     Beginner:
     1:
     0.069,0.099,0.022,0.000,0.000:
0000
0000
0000
0000
,
0000
0000
0000
0000
,
0000
0000
0000
0000
,
0000
0000
0000
0000
,
1000
0000
0000
0000
,
0100
0000
0000
0000
,
0001
0000
0000
0000
,
0100
0000
0000
0000
,
0010
0000
0000
0000
,
0010
0000
0000
0000
,
0100
0000
0000
0000
,
0100
0000
0000
0000
,
1000
0000
0000
0000
,
0001
0000
0000
0000
,
0001
0000
0000
0000
,
1000
0000
0000
0000
,
1001
0000
0000
0000
,
0100
0000
0000
0000
,
0010
0000
0000
0000
,
0001
0000
0000
0000
,
1001
0000
0000
0000
,
1000
0000
0000
0000
,
0001
0000
0000
0000
,
0100
0000
0000
0000
,
0010
0000
0000
0000
,
0010
0000
0000
0000
,
0100
0000
0000
0000
,
0100
0000
0000
0000
,
0001
0000
0000
0000
,
1000
0000
0000
0000
,
0001
0000
0000
0000
,
1000
0000
0000
0000
,
1000
0000
0000
0000
,
0100
0000
0000
0000
,
1000
0000
0000
0000
,
0010
0000
0000
0000
,
0001
0000
0000
0000
,
0100
0000
0000
0000
,
1000
0000
0000
0000
,
1000
0000
0000
0000
,
0001
0000
0000
0000
,
0001
0000
0000
0000
,
1000
0000
0000
0000
,
1000
0000
0000
0000
,
0010
0000
0000
0000
,
0100
0000
0000
0000
,
0010
0000
0000
0000
;

//---------------dance-single - Chewi----------------
#NOTES:
     dance-single:
     Chewi:
     Easy:
     3:
     0.153,0.174,0.032,0.065,0.000:
0000
0000
0000
0000
,
0000
0000
0000
0000
,
0000
0000
0000
0000
,
0000
0000
0000
0000
,
1000
1000
1000
0000
,
0100
0001
0010
0000
,
0001
0001
0001
0000
,
0100
1000
0010
0000
,
0020
0000
0000
0030
,
0010
0100
0010
0000
,
0200
0000
0000
0300
,
0100
0010
0100
0000
,
1000
1000
1000
0000
,
0002
0000
0000
0003
,
0001
0001
0001
0000
,
2000
0000
0000
3000
,
1001
0000
0000
0000
,
0100
0000
0000
0000
,
0010
0000
0000
0000
,
0001
0000
0000
0000
,
1001
0000
0000
0000
,
1000
0000
0000
0000
,
0001
0000
0000
0000
,
0100
0000
0000
0110
,
0010
0010
1000
1000
,
0010
0000
0001
0000
,
0100
0000
1000
0000
,
0100
0000
0001
0000
,
0001
0001
0010
0010
,
1000
0000
0100
0000
,
0001
0000
0100
0000
,
1000
0000
0001
0000
,
1000
0100
0001
0000
,
0100
0010
0100
0000
,
1000
0000
0001
0000
,
0010
0000
0100
0000
,
0001
0010
1000
0000
,
0100
0010
0100
0000
,
1000
0000
0100
0000
,
1000
0000
0001
0000
,
0001
0001
0001
0000
,
0002
0000
0000
0003
,
1000
1000
1000
0000
,
2000
0000
0000
3000
,
0010
0000
0001
0000
,
0100
0000
1000
0000
,
0010
0000
0000
0000
;

//---------------dance-single - Chewi----------------
#NOTES:
     dance-single:
     Chewi:
     Medium:
     6:
     0.270,0.348,0.151,0.313,0.000:
0000
0000
0000
0000
,
0000
0000
0000
0000
,
0000
0000
0000
0000
,
0000
0000
0000
0000
,
1000
0100
1000
0000
,
0100
0010
0011
0000
,
0001
0100
0001
0000
,
0100
0010
1010
0000
,
0001
1000
0100
0000
,
0010
0100
1001
0000
,
1000
0010
0100
0000
,
0001
0100
0011
0000
,
0002
2003
3002
0003
,
1000
0010
0101
0011
,
0002
0023
0032
0003
,
0010
0100
1100
1010
,
1002
0000
0000
0000
,
0203
0000
0000
0000
,
0320
0000
0000
0000
,
2030
0000
0000
0000
,
3001
0000
0001
0000
0001
0001
0001
0000
,
0010
0010
0010
0010
,
0100
0000
0100
0000
0100
0100
0100
0000
,
1000
1000
1000
1000
,
2000
3002
0203
0320
,
0130
0010
0100
0010
,
2000
3200
0320
0032
,
0013
0001
0010
0001
,
0002
2003
3020
0230
,
0310
0100
0010
0100
,
0002
2003
3200
2300
,
3100
0010
0100
0010
,
0001
1001
1000
0000
,
0100
0010
0100
0000
,
0001
1001
1000
0000
,
0100
0010
0100
0000
,
0010
0001
0100
1000
,
0010
0010
0010
0000
0010
0000
0000
0000
,
0010
1000
0100
0001
,
0010
0010
0010
0000
0010
0000
0000
0000
,
0001
1001
1000
0000
,
2000
0000
3000
0000
,
1000
1001
0001
0000
,
0002
0000
0003
0000
,
0010
0110
0010
0000
,
0200
0000
0000
0000
,
0300
0000
0000
0000
;

//---------------dance-single - Chewi----------------
#NOTES:
     dance-single:
     Chewi:
     Hard:
     8:
     0.319,0.373,0.162,0.238,0.000:
0000
0000
0000
0000
,
0000
0000
0000
0000
,
0000
0000
0000
0000
,
0000
0000
0000
0000
,
2000
3200
0302
0003
,
0001
0100
0001
0010
0001
0000
0000
0000
,
0002
0023
2030
3000
,
1000
0010
1000
0100
1000
0000
0000
0000
,
0002
2003
3020
0030
,
0100
0010
0100
0001
0010
0000
0000
0000
,
0002
0023
0230
0300
,
0100
1000
0100
0010
0100
0000
0000
0000
,
2000
3200
2300
0000
,
3001
1000
0010
0100
0001
0000
0101
0000
,
0002
2003
3002
0000
,
0013
0100
1000
0001
0100
0000
0110
0000
,
1002
0000
1000
0000
,
0203
0000
0010
0000
,
0320
0000
0100
0000
,
2030
0000
0001
0000
,
3001
0001
0010
0010
,
1000
1000
0010
0010
,
0001
0100
1000
0100
,
0001
1000
0001
1001
,
1000
1010
0001
0011
,
1000
0010
1000
0000
0001
0010
0001
0000
,
0010
1000
0100
0001
,
0100
1000
0010
0001
,
0001
0011
1000
1010
,
0010
1000
0100
0000
0010
0001
0100
0000
,
0001
0100
1000
0010
,
1000
0100
0001
0010
,
0001
0011
0100
0101
,
0100
0001
0010
0000
0100
1000
0010
0000
,
0100
0010
1000
0100
,
0001
0010
0001
0100
,
1000
1100
0001
0101
,
1000
0001
1000
0000
0001
1000
0001
0000
,
1000
0100
0001
0010
,
0001
0100
0010
1000
,
1001
0100
0100
0000
,
0010
0100
0010
0100
0010
0000
0000
0000
,
1010
0001
0010
0000
,
0100
0010
0100
0010
0100
0000
0000
0000
,
1100
0001
1000
0000
,
0001
0100
1000
0010
,
0001
0000
0000
0000
;

//---------------dance-double - Chewi----------------
#NOTES:
     dance-double:
     Chewi:
     Easy:
     4:
     0.188,0.224,0.043,0.065,0.000: // measure 1
00000000
00000000
00000000
00000000
,  // measure 2
00000000
00000000
00000000
00000000
,  // measure 3
00000000
00000000
00000000
00000000
,  // measure 4
00000000
00000000
00000000
00000000
,  // measure 5
00100000
00000000
00100000
00000000
,  // measure 6
10000000
01000000
00100000
00010000
,  // measure 7
00001000
00000000
00001000
00000000
,  // measure 8
00000010
00000001
00000100
00001000
,  // measure 9
00000010
00000000
00000010
00000000
,  // measure 10
00000010
00001000
00010000
00100000
,  // measure 11
00100000
00000000
00010000
00000000
,  // measure 12
01000000
00100000
00010000
00001000
,  // measure 13
00000020
00000000
00000100
00000030
,  // measure 14
00000100
00000100
00000100
00000000
,  // measure 15
00002000
00000000
00010000
00003000
,  // measure 16
00010000
00010000
00001000
00000000
,  // measure 17
00002000
00000000
00003000
00000000
,  // measure 18
00020000
00000000
00030000
00000000
,  // measure 19
02000000
00000000
03000000
00000000
,  // measure 20
00200000
00000000
00300000
00000000
,  // measure 21
00010000
00000000
00001000
00000000
,  // measure 22
00001000
00000000
01000000
00000000
,  // measure 23
00010000
00000000
00000100
00000000
,  // measure 24
00001000
00001000
00001000
00000000
,  // measure 25
00000010
00000110
00000010
00000000
,  // measure 26
00000001
00001000
00000001
00000000
,  // measure 27
00000100
00010000
00001000
00000000
,  // measure 28
00000000
00001000
00010000
00001000
,  // measure 29
00010000
00001000
00010000
00000000
,  // measure 30
00100000
00100000
00010000
00000000
,  // measure 31
01000000
00100000
00010000
01000000
,  // measure 32
00000000
00100000
00001000
00010000
,  // measure 33
00001000
00000010
00001000
00000000
,  // measure 34
00000100
00000010
00000001
00000000
,  // measure 35
00000010
00001000
00000001
00000100
,  // measure 36
00000000
00000010
00000010
00001000
,  // measure 37
00001000
00000000
00000001
00000000
,  // measure 38
00000010
00000000
00010000
00000000
,  // measure 39
01000000
00000000
00010000
00000000
,  // measure 40
00100000
00000000
00010000
00000000
,  // measure 41
00011000
00000000
00010000
00000000
,  // measure 42
00010000
00001000
00001000
00000010
,  // measure 43
00000010
00000000
00001001
00000000
,  // measure 44
00000010
00001000
00010000
00001000
,  // measure 45
00011000
00000000
00010000
00000000
,  // measure 46
00010000
00100000
10000000
01000000
,  // measure 47
00010000
00000000
00000000
00000000
;

//---------------dance-double - Chewi----------------
#NOTES:
     dance-double:
     Chewi:
     Medium:
     6:
     0.296,0.373,0.173,0.292,0.000: // measure 1
00000000
00000000
00000000
00000000
,  // measure 2
00000000
00000000
00000000
00000000
,  // measure 3
00000000
00000000
00000000
00000000
,  // measure 4
00000000
00000000
00000000
00000000
,  // measure 5
00100000
01000000
00100000
00000000
,  // measure 6
10000000
01000000
00100000
00010000
,  // measure 7
00001000
00010000
00001000
00000000
,  // measure 8
00000010
00000001
00000100
00001000
,  // measure 9
00000010
00001000
00000010
00000000
,  // measure 10
00000010
00001000
00010000
00100000
,  // measure 11
01000000
00100000
00010000
00000000
,  // measure 12
01000000
00100000
00010000
00001000
,  // measure 13
00000010
00000010
00000020
00000030
,  // measure 14
00000100
00000010
00000100
00000000
00000100
00000000
00000000
00000000
,  // measure 15
00001000
00001000
00002000
00003000
,  // measure 16
00010000
00001000
00010000
00000000
00001000
00000000
00000000
00000000
,  // measure 17
00002000
00000000
00000000
00000000
,  // measure 18
00023000
00000000
00000000
00000000
,  // measure 19
02030000
00000000
00000000
00000000
,  // measure 20
03200000
00000000
00000000
00000000
,  // measure 21
00310000
00010000
00001000
00000010
,  // measure 22
00001000
00010000
01000000
00010000
,  // measure 23
00001000
00000100
00000001
00000010
,  // measure 24
00001000
00000001
00001000
00000000
00001001
00000000
00000100
00000000
,  // measure 25
00000010
00001010
00000010
00000011
,  // measure 26
00000001
00000100
00001000
00000000
00001000
00001000
00001000
00000000
,  // measure 27
00000200
00020300
00032000
00023000
,  // measure 28
00030000
00002000
00023000
00032000
,  // measure 29
00013000
00000000
00011000
00000000
00001000
00010000
01000000
00000000
,  // measure 30
00100000
10000000
00010000
00100000
,  // measure 31
02000000
03200000
00320000
02030000
,  // measure 32
03000000
00200000
00302000
00023000
,  // measure 33
00031000
00000000
00000010
00000000
00001000
00000001
00000010
00000000
,  // measure 34
00000100
00000010
00000001
00001000
,  // measure 35
00000020
00002030
00003002
00000203
,  // measure 36
00000300
00000020
00002030
00003002
,  // measure 37
00001003
00000000
00001100
00000000
00000001
00000100
00001000
00000000
,  // measure 38
00000010
00001000
00010000
00100000
,  // measure 39
01000000
00000000
00110000
00000000
00010000
00100000
10000000
00000000
,  // measure 40
00100000
01000000
00010000
00100000
,  // measure 41
00110000
00101000
00011000
00000000
,  // measure 42
00000000
00010000
00000000
00000000
00001000
00000000
00000010
00000000
,  // measure 43
00001010
00001001
00001100
00000000
,  // measure 44
00000000
00000100
00000000
00000000
00010000
00000000
00001000
00000000
,  // measure 45
00011000
00001010
00011000
00000000
,  // measure 46
00000000
00001000
00000000
00000000
00010000
00000000
01000000
00000000
,  // measure 47
10100000
00000000
00000000
00000000
;

//---------------dance-double - Chewi----------------
#NOTES:
     dance-double:
     Chewi:
     Hard:
     8:
     0.347,0.373,0.119,0.270,0.000:
00000000
00000000
00000000
00000000
,
00000000
00000000
00000000
00000000
,
00000000
00000000
00000000
00000000
,
00000000
00000000
00000000
00000000
,
20000000
32000000
03200000
00300000
,
00010000
00100000
01000000
10000000
00100000
00000000
01000000
00000000
,
00020000
00230000
00302000
00003000
,
00010000
00001000
00000010
00000100
00000001
00000000
00000010
00000000
,
00000002
00000023
00000230
00000300
,
00001000
00000100
00000010
00000001
00001000
00000000
00000010
00000000
,
00000020
00002030
00023000
00030000
,
10000000
00010000
01000000
00100000
10000000
00000000
00010000
00000000
,
00100000
01100000
01000000
01100000
,
00010000
00100000
01000000
10000000
00010000
00100000
01000000
00000000
,
10000000
10010000
00010000
10010000
,
00010000
00100000
00001000
00010000
00000100
00001000
00000001
00000000
,
00000102
00000000
00000100
00000000
,
00002003
00000000
00000010
00000000
,
00003200
00000000
00010000
00000000
,
00020300
00000000
00001000
00000000
,
00031000
00000000
00010000
00000000
00001000
00010000
00001000
00000000
,
00010000
00000000
00100000
00000000
10000000
01000000
00010000
00000000
,
01000000
00000000
00100000
00000000
01000000
00100000
01000000
00000000
,
00010000
00000000
00100000
00000000
00001000
00010000
00001000
00000000
,
00011000
00000000
00001000
00000000
00000010
00000100
00000001
00000000
,
00001000
00000100
00000010
00000001
,
00001000
00001000
00001000
00000000
00000100
00000100
00000100
00000000
,
00010000
00010000
00010000
00000000
00001000
00001000
00001000
00000000
,
00011000
00000000
00001000
00000000
00010000
01000000
10000000
00000000
,
00100000
10000000
00010000
00100000
,
01000000
01000000
01000000
00000000
00100000
00000000
00010000
00000000
,
10000000
10000000
10000000
00000000
01000000
00000000
00100000
00000000
,
00110000
00000000
00100000
00000000
00001000
00010000
00001000
00000000
,
00000010
00000100
00000010
00001000
,
00000001
00001000
00000100
00000000
00001000
00000001
00000010
00000000
,
00000100
00000100
00000100
00000000
00000100
00000100
00000100
00000000
,
00001100
00010000
00001000
00010000
,
01000000
00100000
01000000
00000000
00010000
10000000
00010000
00000000
,
10000000
00000000
11000000
00000000
00010000
00100000
01000000
00000000
,
10000000
00000000
10100000
00000000
00010000
00100000
01000000
00000000
,
00200000
00320000
00230000
00300000
,
00010000
00100000
00001000
00010000
,
00002000
00003020
00002030
00003000
,
00000010
00000100
00000001
00001000
,
00000002
00000203
00002300
00003000
,
00000010
00001000
00010000
00001000
,
00010000
00000000
00000000
00000000
;
